×

¿Problemas para descargar con Mozilla, EDGE? Deshabilita la opción "Abrir vinculos en una pestaña nueva" tal como lo muestra ésta imagen.

La Red Social (2010) 1080p Latino

255 vistas

Información de La Red Social (2010) 1080p Latino

Datos de la película

  • Calidad: 1080p
  • Audio: Español Latino AC3 5.1 BLURAY - Ingles AC3 5.1 BLURAY
  • Subtitulos: Español Latino SRT - Ingles SRT
  • Resolución: 1920x800p
  • Formato: MKV
  • Codec: H.264
  • Encoder: CinefiloCool
  • Mediainfo: Clic para Mostrar Datos Ver
  • Red Social (2010) 1080p Latino-CMHDD.mkv
    Format                      : Matroska
    Format version              : Version 4
    File size                   : 3.70 GiB
    Duration                    : 2 h 0 min
    Overall bit rate            : 4 398 kb/s
    Movie name                  : The Social Network (2010) CinemaniaHDD.Net
    Encoded date                : UTC 2021-04-10 17:09:05
    Writing application         : mkvmerge v51.0.0 ('I Wish') 64-bit
    Writing library             : libebml v1.4.0 + libmatroska v1.6.2
    Attachments                 : CINEMANIAHD.png

    Video
    ID                          : 1
    Format                      : AVC
    Format/Info                 : Advanced Video Codec
    Format profile              : High@L4.1
    Format settings             : CABAC / 5 Ref Frames
    Format settings, CABAC      : Yes
    Format settings, Reference  : 5 frames
    Codec ID                    : V_MPEG4/ISO/AVC
    Duration                    : 2 h 0 min
    Bit rate                    : 3 500 kb/s
    Width                       : 1 920 pixels
    Height                      : 800 pixels
    Display aspect ratio        : 2.40:1
    Frame rate mode             : Constant
    Frame rate                  : 23.976 (24000/1001) FPS
    Color space                 : YUV
    Chroma subsampling          : 4:2:0
    Bit depth                   : 8 bits
    Scan type                   : Progressive
    Bits/(Pixel*Frame)          : 0.095
    Stream size                 : 2.94 GiB (80%)
    Title                       : HD1080p [CinemaniaHDD]
    Writing library             : x264 core 157 r2935 545de2f
    Encoding settings           : cabac=1 / ref=5 / deblock=1:-1:-1 / analyse=0x3:0x133 / me=umh / subme=9 / psy=1 / psy_rd=1.00:0.15 / mixed_ref=1 / me_range=16 / chroma_me=1 / trellis=2 / 8x8dct=1 / cqm=0 / deadzone=21,11 / fast_pskip=1 / chroma_qp_offset=-3 / threads=24 / lookahead_threads=2 / sliced_threads=0 / nr=0 / decimate=1 / interlaced=0 / bluray_compat=0 / constrained_intra=0 / bframes=3 / b_pyramid=2 / b_adapt=2 / b_bias=0 / direct=3 / weightb=1 / open_gop=0 / weightp=2 / keyint=240 / keyint_min=24 / scenecut=40 / intra_refresh=0 / rc_lookahead=60 / rc=2pass / mbtree=1 / bitrate=3500 / ratetol=1.0 / qcomp=0.60 / qpmin=0 / qpmax=69 / qpstep=4 / cplxblur=20.0 / qblur=0.5 / vbv_maxrate=62500 / vbv_bufsize=78125 / nal_hrd=none / filler=0 / ip_ratio=1.40 / aq=1:1.00
    Default                     : Yes
    Forced                      : Yes
    Color range                 : Limited
    Color primaries             : BT.709
    Transfer characteristics    : BT.709
    Matrix coefficients         : BT.709

    Audio #1
    ID                          : 2
    Format                      : AC-3
    Format/Info                 : Audio Coding 3
    Commercial name             : Dolby Digital
    Codec ID                    : A_AC3
    Duration                    : 2 h 0 min
    Bit rate mode               : Constant
    Bit rate                    : 448 kb/s
    Channel(s)                  : 6 channels
    Channel layout              : L R C LFE Ls Rs
    Sampling rate               : 48.0 kHz
    Frame rate                  : 31.250 FPS (1536 SPF)
    Compression mode            : Lossy
    Delay relative to video     : -5 ms
    Stream size                 : 386 MiB (10%)
    Title                       : Español Latino [CinemaniaHDD]
    Language                    : Spanish
    Service kind                : Complete Main
    Default                     : Yes
    Forced                      : Yes

    Audio #2
    ID                          : 3
    Format                      : AC-3
    Format/Info                 : Audio Coding 3
    Commercial name             : Dolby Digital
    Codec ID                    : A_AC3
    Duration                    : 2 h 0 min
    Bit rate mode               : Constant
    Bit rate                    : 448 kb/s
    Channel(s)                  : 6 channels
    Channel layout              : L R C LFE Ls Rs
    Sampling rate               : 48.0 kHz
    Frame rate                  : 31.250 FPS (1536 SPF)
    Compression mode            : Lossy
    Delay relative to video     : -5 ms
    Stream size                 : 386 MiB (10%)
    Title                       : Ingles [CinemaniaHDD]
    Language                    : English
    Service kind                : Complete Main
    Default                     : No
    Forced                      : No

    Text #1
    ID                          : 4
    Format                      : UTF-8
    Codec ID                    : S_TEXT/UTF8
    Codec ID/Info               : UTF-8 Plain Text
    Duration                    : 1 h 48 min
    Bit rate                    : 0 b/s
    Count of elements           : 9
    Stream size                 : 197 Bytes (0%)
    Title                       : Forzados-SRT [CinemaniaHDD]
    Language                    : Spanish
    Default                     : Yes
    Forced                      : Yes

    Text #2
    ID                          : 5
    Format                      : UTF-8
    Codec ID                    : S_TEXT/UTF8
    Codec ID/Info               : UTF-8 Plain Text
    Duration                    : 2 h 0 min
    Bit rate                    : 80 b/s
    Count of elements           : 2215
    Stream size                 : 70.5 KiB (0%)
    Title                       : Español-SRT [CinemaniaHDD]
    Language                    : Spanish
    Default                     : No
    Forced                      : No

    Text #3
    ID                          : 6
    Format                      : UTF-8
    Codec ID                    : S_TEXT/UTF8
    Codec ID/Info               : UTF-8 Plain Text
    Duration                    : 1 h 53 min
    Bit rate                    : 110 b/s
    Count of elements           : 2285
    Stream size                 : 91.4 KiB (0%)
    Title                       : Ingles-SRT [CinemaniaHDD]
    Language                    : English
    Default                     : No
    Forced                      : No

    Menu
    00:00:00.000                : :Chapter 1
    00:07:33.203                : :Chapter 2
    00:17:15.368                : :Chapter 3
    00:24:19.792                : :Chapter 4
    00:31:07.032                : :Chapter 5
    00:34:47.586                : :Chapter 6
    00:44:27.165                : :Chapter 7
    00:50:54.385                : :Chapter 8
    00:55:39.253                : :Chapter 9
    01:00:15.487                : :Chapter 10
    01:11:40.880                : :Chapter 11
    01:18:29.330                : :Chapter 12
    01:24:22.391                : :Chapter 13
    01:33:16.800                : :Chapter 14
    01:38:04.045                : :Chapter 15
    01:47:09.715                : :Chapter 16

  • Peso: 3.70 GiB

Sinopsis

Descargar La Red Social (2010) 1080p Latino. Mark Zuckerberg, alumno de Harvard y genio de la programación, se sienta a su ordenador y con empeño y entusiasmo comienza a desarrollar una nueva idea. En un furor de blogging y programación, lo que comenzó en la habitación de su colegio mayor pronto se convirtió en una red social global y una revolución en la comunicación. Seis años y 500 millones de amigos después, Mark Zuckerberg es el billonario más joven de la historia. Pero para este emprendedor, el éxito ha supuesto complicaciones personales y legales…

Ficha técnica

Video trailer de la película

Enlaces de descarga

Rip de Bluray

Descargar La Red Social (2010) 1080p Latino




Aportes de DPeliculasHDmega la pass es:dpeliculashdmega.org Aportes de CinemaniaHD la pass es:cinemaniahdd.com
Guardado en : Drama , HD 1080p

Películas relacionadas

descargar La Red Social (2010) 1080p Latino 1080p 1080p gratis, La Red Social (2010) 1080p Latino 1080p mega 1 link, La Red Social (2010) 1080p Latino 1080p pelicula completa, descargar La Red Social (2010) 1080p Latino 1080p gratis en mega.

La Red Social (2010) 1080p Latino pelicula full hd, La Red Social (2010) 1080p Latino mega latino, La Red Social (2010) 1080p Latino 4k latino, La Red Social (2010) 1080p Latino pelicula completa, La Red Social (2010) 1080p Latino descargar gratis, descargar La Red Social (2010) 1080p Latino pelicula latino, La Red Social (2010) 1080p Latino 1 link mega, La Red Social (2010) 1080p Latino 1 link google drive, La Red Social (2010) 1080p Latino hd 1080p latino.
Comentarios 0