×

¿Problemas para descargar con Mozilla, EDGE? Deshabilita la opción "Abrir vinculos en una pestaña nueva" tal como lo muestra ésta imagen.

Un Niñero Sinvergüenza (2011) THEATRICAL CUT REMUX 1080p Latino

36 vistas

Información de Un Niñero Sinvergüenza (2011) THEATRICAL CUT REMUX 1080p Latino

Datos de la película

  • Calidad: Full 1080p
  • Audio: Español Latino AC3 5.1 BLURAY - Ingles DTS 5.1 BLURAY
  • Subtitulos: Español Latino PGS - Ingles PGS
  • Resolución: 1920x1080p
  • Formato: MKV
  • Codec: H.264
  • Encoder: CinefiloCool
  • Mediainfo: Clic para Mostrar Datos Ver
  • Un Niñero Sinverguenza (2011) TC REMUX 1080p Latino-CMHDD.mkv
    Format                      : Matroska
    Format version              : Version 4
    File size                   : 19.5 GiB
    Duration                    : 1 h 21 min
    Overall bit rate mode       : Variable
    Overall bit rate            : 34.4 Mb/s
    Movie name                  : The Sitter (2011) Theatrical Cut CinemaniaHDD.Net
    Encoded date                : UTC 2022-12-25 17:05:57
    Writing application         : mkvmerge v56.1.0 ('My Friend') 64-bit
    Writing library             : libebml v1.4.2 + libmatroska v1.6.4
    Attachments                 : CINEMANIAHD.png

    Video
    ID                          : 1
    Format                      : AVC
    Format/Info                 : Advanced Video Codec
    Format profile              : High@L4.1
    Format settings             : CABAC / 4 Ref Frames
    Format settings, CABAC      : Yes
    Format settings, Reference  : 4 frames
    Codec ID                    : V_MPEG4/ISO/AVC
    Duration                    : 1 h 21 min
    Bit rate mode               : Variable
    Bit rate                    : 29.9 Mb/s
    Maximum bit rate            : 33.0 Mb/s
    Width                       : 1 920 pixels
    Height                      : 1 080 pixels
    Display aspect ratio        : 16:9
    Frame rate mode             : Constant
    Frame rate                  : 23.976 (24000/1001) FPS
    Color space                 : YUV
    Chroma subsampling          : 4:2:0
    Bit depth                   : 8 bits
    Scan type                   : Progressive
    Bits/(Pixel*Frame)          : 0.601
    Stream size                 : 17.0 GiB (87%)
    Title                       : REMUX HD1080p [CinemaniaHDD]
    Default                     : Yes
    Forced                      : Yes

    Audio #1
    ID                          : 2
    Format                      : AC-3
    Format/Info                 : Audio Coding 3
    Commercial name             : Dolby Digital
    Codec ID                    : A_AC3
    Duration                    : 1 h 21 min
    Bit rate mode               : Constant
    Bit rate                    : 448 kb/s
    Channel(s)                  : 6 channels
    Channel layout              : L R C LFE Ls Rs
    Sampling rate               : 48.0 kHz
    Frame rate                  : 31.250 FPS (1536 SPF)
    Compression mode            : Lossy
    Stream size                 : 260 MiB (1%)
    Title                       : Español Latino [CinemaniaHDD]
    Language                    : Spanish
    Service kind                : Complete Main
    Default                     : Yes
    Forced                      : Yes

    Audio #2
    ID                          : 3
    Format                      : DTS XLL
    Format/Info                 : Digital Theater Systems
    Commercial name             : DTS-HD Master Audio
    Codec ID                    : A_DTS
    Duration                    : 1 h 21 min
    Bit rate mode               : Variable
    Bit rate                    : 4 001 kb/s
    Channel(s)                  : 6 channels
    Channel layout              : C L R Ls Rs LFE
    Sampling rate               : 48.0 kHz
    Frame rate                  : 93.750 FPS (512 SPF)
    Bit depth                   : 24 bits
    Compression mode            : Lossless
    Stream size                 : 2.27 GiB (12%)
    Title                       : Ingles [CinemaniaHDD]
    Language                    : English
    Default                     : No
    Forced                      : No

    Text #1
    ID                          : 4
    Format                      : PGS
    Muxing mode                 : zlib
    Codec ID                    : S_HDMV/PGS
    Codec ID/Info               : Picture based subtitle format used on BDs/HD-DVDs
    Duration                    : 1 h 4 min
    Bit rate                    : 738 b/s
    Count of elements           : 28
    Stream size                 : 349 KiB (0%)
    Title                       : Forzados-PGS [CinemaniaHDD]
    Language                    : Spanish
    Default                     : No
    Forced                      : No

    Text #2
    ID                          : 5
    Format                      : PGS
    Muxing mode                 : zlib
    Codec ID                    : S_HDMV/PGS
    Codec ID/Info               : Picture based subtitle format used on BDs/HD-DVDs
    Duration                    : 1 h 20 min
    Bit rate                    : 52.1 kb/s
    Count of elements           : 3031
    Stream size                 : 29.9 MiB (0%)
    Title                       : Español-PGS [CinemaniaHDD]
    Language                    : Spanish
    Default                     : No
    Forced                      : No

    Text #3
    ID                          : 6
    Format                      : PGS
    Muxing mode                 : zlib
    Codec ID                    : S_HDMV/PGS
    Codec ID/Info               : Picture based subtitle format used on BDs/HD-DVDs
    Duration                    : 1 h 20 min
    Bit rate                    : 68.4 kb/s
    Count of elements           : 3508
    Stream size                 : 39.5 MiB (0%)
    Title                       : Ingles [CinemaniaHDD]
    Language                    : English
    Default                     : No
    Forced                      : No

    Text #4
    ID                          : 7
    Format                      : UTF-8
    Codec ID                    : S_TEXT/UTF8
    Codec ID/Info               : UTF-8 Plain Text
    Duration                    : 46 min 10 s
    Bit rate                    : 0 b/s
    Count of elements           : 10
    Stream size                 : 226 Bytes (0%)
    Title                       : Forzados-SRT [CinemaniaHDD]
    Language                    : Spanish
    Default                     : Yes
    Forced                      : Yes

    Text #5
    ID                          : 8
    Format                      : UTF-8
    Codec ID                    : S_TEXT/UTF8
    Codec ID/Info               : UTF-8 Plain Text
    Duration                    : 1 h 16 min
    Bit rate                    : 88 b/s
    Count of elements           : 1465
    Stream size                 : 49.6 KiB (0%)
    Title                       : Español-SRT [CinemaniaHDD]
    Language                    : Spanish
    Default                     : No
    Forced                      : No

    Menu
    00:00:00.000                : :Chapter 01
    00:04:21.303                : :Chapter 02
    00:07:10.096                : :Chapter 03
    00:12:40.468                : :Chapter 04
    00:16:00.543                : :Chapter 05
    00:19:45.976                : :Chapter 06
    00:22:08.661                : :Chapter 07
    00:26:14.198                : :Chapter 08
    00:29:51.331                : :Chapter 09
    00:33:16.995                : :Chapter 10
    00:36:55.922                : :Chapter 11
    00:39:05.134                : :Chapter 12
    00:41:36.702                : :Chapter 13
    00:44:13.609                : :Chapter 14
    00:49:28.007                : :Chapter 15
    00:53:26.411                : :Chapter 16
    00:55:23.612                : :Chapter 17
    00:57:50.050                : :Chapter 18
    01:01:37.527                : :Chapter 19
    01:04:35.330                : :Chapter 20
    01:08:54.797                : :Chapter 21
    01:11:31.537                : :Chapter 22
    01:14:48.192                : :Chapter 23
    01:16:21.076                : :Chapter 24
    01:21:13.911                : :Chapter 25

  • Peso: 19.5 GiB

Sinopsis

Descargar Un Niñero Sinvergüenza (2011) THEATRICAL CUT REMUX 1080p Latino. Todo comienza con un simple favor que con el tiempo se transforma en algo terrible. Cuando el peor canguro del mundo (Jonah Hill) embarca a los tres peores niños del mundo en una inolvidable aventura nocturna por las calles de la ciudad de Nueva York, con transporte de drogas y strippers incluidas, nadie puede predecir quién va a volver a su casa de una pieza…

Nota: Version Teatral

Ficha técnica

Video trailer de la película

Enlaces de descarga

Rip de Bluray

Descargar Un Niñero Sinvergüenza (2011) THEATRICAL CUT REMUX 1080p Latino


Aportes de DPeliculasHDmega la pass es:dpeliculashdmega.org Aportes de CinemaniaHD la pass es:cinemaniahdd.com
Guardado en : Comedia , Remux

Películas relacionadas

  • Mi amigo el dragón (2016) REMUX 1080p Latino

    Mi amigo el dragón (2016) REMUX 1080p Latino

    2016
    Mi amigo el dragón (2016) REMUX 1080p Latino

    1h 43m 2016

    Descargar Mi amigo el dragón (2016) REMUX 1080p Latino. Durante años el Sr. Meacham, un viejo tallador...

    Director: Joe Nolan

    Género: Aventura

    Actores: William J. Rawbone

  • El discurso del Rey (2010) REMUX 1080p Latino

    El discurso del Rey (2010) REMUX 1080p Latino

    2010
    El discurso del Rey (2010) REMUX 1080p Latino

    1h 58m 2010

    Descargar El discurso del Rey (2010) REMUX 1080p Latino. El duque de York se convirtió en rey de Gran...

    Director: Tom Hooper

    Género: Drama

    Actores: Tony Earnshaw

descargar Un Niñero Sinvergüenza (2011) THEATRICAL CUT REMUX 1080p Latino Full 1080p 1080p gratis, Un Niñero Sinvergüenza (2011) THEATRICAL CUT REMUX 1080p Latino Full 1080p mega 1 link, Un Niñero Sinvergüenza (2011) THEATRICAL CUT REMUX 1080p Latino Full 1080p pelicula completa, descargar Un Niñero Sinvergüenza (2011) THEATRICAL CUT REMUX 1080p Latino Full 1080p gratis en mega.

Un Niñero Sinvergüenza (2011) THEATRICAL CUT REMUX 1080p Latino pelicula full hd, Un Niñero Sinvergüenza (2011) THEATRICAL CUT REMUX 1080p Latino mega latino, Un Niñero Sinvergüenza (2011) THEATRICAL CUT REMUX 1080p Latino 4k latino, Un Niñero Sinvergüenza (2011) THEATRICAL CUT REMUX 1080p Latino pelicula completa, Un Niñero Sinvergüenza (2011) THEATRICAL CUT REMUX 1080p Latino descargar gratis, descargar Un Niñero Sinvergüenza (2011) THEATRICAL CUT REMUX 1080p Latino pelicula latino, Un Niñero Sinvergüenza (2011) THEATRICAL CUT REMUX 1080p Latino 1 link mega, Un Niñero Sinvergüenza (2011) THEATRICAL CUT REMUX 1080p Latino 1 link google drive, Un Niñero Sinvergüenza (2011) THEATRICAL CUT REMUX 1080p Latino hd 1080p latino.
Comentarios 0