×

¿Problemas para descargar con Mozilla, EDGE? Deshabilita la opción "Abrir vinculos en una pestaña nueva" tal como lo muestra ésta imagen.

The Silent Twins (2022) 4K-HDR WEB-DL 2160p Latino

32 vistas

Información de The Silent Twins (2022) 4K-HDR WEB-DL 2160p Latino

Datos de la película

  • Calidad: 4K HDR
  • Audio: Español Latino AC3 2.0 WEB-DL - Ingles AC3 5.1 WEB-DL
  • Subtitulos: Español Latino SRT- FORZADOS SRT
  • Resolución: 3576x2152
  • Formato: MKV
  • Codec: H.264
  • Encoder: cinemaniahdd
  • Mediainfo: Clic para Mostrar Datos Ver
  • The Silent Twins (2022) 4K-HDR WEB-DL 2160p Latino [CNMNHDD].mkv
    Format                      : Matroska
    Format version              : Version 4
    File size                   : 19.5 GiB
    Duration                    : 1 h 53 min
    Overall bit rate            : 24.7 Mb/s
    Movie name                  : The Silent Twins (2022) [2160p] - CinemaniaHDD.Net
    Encoded date                : UTC 2022-11-04 19:53:07
    Writing application         : mkvmerge v56.1.0 ('My Friend') 64-bit
    Writing library             : libebml v1.4.2 + libmatroska v1.6.4

    Video
    ID                          : 1
    Format                      : HEVC
    Format/Info                 : High Efficiency Video Coding
    Format profile              : Main 10@L5@High
    HDR format                  : SMPTE ST 2086, HDR10 compatible
    Codec ID                    : V_MPEGH/ISO/HEVC
    Duration                    : 1 h 53 min
    Bit rate                    : 23.9 Mb/s
    Width                       : 3 576 pixels
    Height                      : 2 152 pixels
    Display aspect ratio        : 5:3
    Frame rate mode             : Constant
    Frame rate                  : 23.976 (24000/1001) FPS
    Color space                 : YUV
    Chroma subsampling          : 4:2:0 (Type 2)
    Bit depth                   : 10 bits
    Bits/(Pixel*Frame)          : 0.130
    Stream size                 : 18.9 GiB (97%)
    Title                       : CinemaniaHDD
    Language                    : English
    Default                     : Yes
    Forced                      : No
    Color range                 : Limited
    Color primaries             : BT.2020
    Transfer characteristics    : PQ
    Matrix coefficients         : BT.2020 non-constant
    Mastering display color pri : Display P3
    Mastering display luminance : min: 0.0050 cd/m2, max: 1000 cd/m2
    Maximum Content Light Level : 811 cd/m2
    Maximum Frame-Average Light : 117 cd/m2

    Audio #1
    ID                          : 2
    Format                      : AC-3
    Format/Info                 : Audio Coding 3
    Commercial name             : Dolby Digital
    Codec ID                    : A_AC3
    Duration                    : 1 h 53 min
    Bit rate mode               : Constant
    Bit rate                    : 384 kb/s
    Channel(s)                  : 2 channels
    Channel layout              : L R
    Sampling rate               : 48.0 kHz
    Frame rate                  : 31.250 FPS (1536 SPF)
    Compression mode            : Lossy
    Stream size                 : 311 MiB (2%)
    Title                       : Español latino [CinemaniaHDD]
    Language                    : Spanish
    Service kind                : Complete Main
    Default                     : Yes
    Forced                      : No

    Audio #2
    ID                          : 3
    Format                      : AC-3
    Format/Info                 : Audio Coding 3
    Commercial name             : Dolby Digital
    Codec ID                    : A_AC3
    Duration                    : 1 h 53 min
    Bit rate mode               : Constant
    Bit rate                    : 384 kb/s
    Channel(s)                  : 6 channels
    Channel layout              : L R C LFE Ls Rs
    Sampling rate               : 48.0 kHz
    Frame rate                  : 31.250 FPS (1536 SPF)
    Compression mode            : Lossy
    Delay relative to video     : 29 ms
    Stream size                 : 311 MiB (2%)
    Title                       : Inglés [CinemaniaHDD]
    Language                    : English
    Service kind                : Complete Main
    Default                     : No
    Forced                      : No

    Text #1
    ID                          : 4
    Format                      : UTF-8
    Codec ID                    : S_TEXT/UTF8
    Codec ID/Info               : UTF-8 Plain Text
    Duration                    : 1 h 33 min
    Bit rate                    : 1 b/s
    Count of elements           : 24
    Stream size                 : 766 Bytes (0%)
    Title                       : Forzados [CinemaniaHDD]
    Language                    : Spanish
    Default                     : Yes
    Forced                      : Yes

    Text #2
    ID                          : 5
    Format                      : UTF-8
    Codec ID                    : S_TEXT/UTF8
    Codec ID/Info               : UTF-8 Plain Text
    Duration                    : 1 h 52 min
    Bit rate                    : 31 b/s
    Count of elements           : 911
    Stream size                 : 25.9 KiB (0%)
    Title                       : Español latino [CinemaniaHDD]
    Language                    : Spanish
    Default                     : No
    Forced                      : No

    Text #3
    ID                          : 6
    Format                      : UTF-8
    Codec ID                    : S_TEXT/UTF8
    Codec ID/Info               : UTF-8 Plain Text
    Duration                    : 1 h 51 min
    Bit rate                    : 49 b/s
    Count of elements           : 1617
    Stream size                 : 40.6 KiB (0%)
    Title                       : Inglés [CinemaniaHDD]
    Language                    : English
    Default                     : No
    Forced                      : No

    Menu
    00:00:00.000                : Chapter 01
    00:02:09.254                : Chapter 02
    00:13:31.019                : Chapter 03
    00:28:53.024                : Chapter 04
    00:42:26.046                : Chapter 05
    00:57:46.091                : Chapter 06
    01:09:02.017                : Chapter 07
    01:23:20.584                : Chapter 08
    01:37:38.442                : Chapter 09
    01:45:24.366                : Chapter 10

     

  • Peso: 19.5 GiB

Sinopsis

Dos hermanas gemelas que solían estar completamente en silencio, comunicándose solo entre ellas cuando eran niñas, de adolescentes se obsesionaron con escribir ficción, luego con los adolescentes y, finalmente, con el crimen.

Ficha técnica

  • Titulo original: The Silent Twins
  • Fecha de lanzamiento: 16-09-2022 (France, Poland, United Kingdom, United States of America)
  • Director: Agnieszka Smoczyńska
  • Género: 4K HDR, 4K UHD, Drama

Video trailer de la película

Enlaces de descarga

Rip de Bluray

Descargar The Silent Twins (2022) 4K-HDR WEB-DL 2160p Latino




Aportes de DPeliculasHDmega la pass es:dpeliculashdmega.org Aportes de CinemaniaHD la pass es:cinemaniahdd.com
Guardado en : 4K HDR , 4K UHD , Drama

Películas relacionadas

descargar The Silent Twins (2022) 4K-HDR WEB-DL 2160p Latino 4K HDR 1080p gratis, The Silent Twins (2022) 4K-HDR WEB-DL 2160p Latino 4K HDR mega 1 link, The Silent Twins (2022) 4K-HDR WEB-DL 2160p Latino 4K HDR pelicula completa, descargar The Silent Twins (2022) 4K-HDR WEB-DL 2160p Latino 4K HDR gratis en mega.

The Silent Twins (2022) 4K-HDR WEB-DL 2160p Latino pelicula full hd, The Silent Twins (2022) 4K-HDR WEB-DL 2160p Latino mega latino, The Silent Twins (2022) 4K-HDR WEB-DL 2160p Latino 4k latino, The Silent Twins (2022) 4K-HDR WEB-DL 2160p Latino pelicula completa, The Silent Twins (2022) 4K-HDR WEB-DL 2160p Latino descargar gratis, descargar The Silent Twins (2022) 4K-HDR WEB-DL 2160p Latino pelicula latino, The Silent Twins (2022) 4K-HDR WEB-DL 2160p Latino 1 link mega, The Silent Twins (2022) 4K-HDR WEB-DL 2160p Latino 1 link google drive, The Silent Twins (2022) 4K-HDR WEB-DL 2160p Latino hd 1080p latino.
Comentarios 0