×

¿Problemas para descargar con Mozilla, EDGE? Deshabilita la opción "Abrir vinculos en una pestaña nueva" tal como lo muestra ésta imagen.

The Silence (2019) NF WEB-DL 1080p Latino

1.355 vistas

Información de The Silence (2019) NF WEB-DL 1080p Latino

el silencio 52300 poster

Datos de la película

  • Calidad: WEBDL
  • Audio: Español Latino AC3 5.1 Netflix - Ingles AC3 5.1 Netflix
  • Subtitulos: Español Latino SRT- FORZADOS SRT
  • Resolución: 1920x1080
  • Formato: MKV
  • Codec: H.264
  • Encoder: cinemaniahdd
  • Mediainfo: Clic para Mostrar Datos Ver
  • The Silence (2019) NF WEB-DL 1080p Latino.mkv
    Format                      : Matroska
    Format version              : Version 4
    File size                   : 2.01 GiB
    Duration                    : 1 h 30 min
    Overall bit rate mode       : Variable
    Overall bit rate            : 3 161 kb/s
    Movie name                  : elSilencio
    Encoded date                : UTC 2019-04-10 23:44:15 / UTC 2019-04-03 12:20:03
    Writing application         : mkvmerge v11.0.0 ('Alive') 64bit
    Writing library             : libebml v1.3.4 + libmatroska v1.4.5 / Lavf58.0.0

    Video
    ID                          : 1
    Format                      : AVC
    Format/Info                 : Advanced Video Codec
    Format profile              : High@L4
    Format settings             : CABAC / 4 Ref Frames
    Format settings, CABAC      : Yes
    Format settings, ReFrames   : 4 frames
    Codec ID                    : V_MPEG4/ISO/AVC
    Duration                    : 1 h 30 min
    Bit rate mode               : Variable
    Bit rate                    : 2 330 kb/s
    Maximum bit rate            : 20.0 Mb/s
    Width                       : 1 920 pixels
    Height                      : 1 080 pixels
    Display aspect ratio        : 16:9
    Frame rate mode             : Constant
    Frame rate                  : 23.976 (24000/1001) FPS
    Color space                 : YUV
    Chroma subsampling          : 4:2:0
    Bit depth                   : 8 bits
    Scan type                   : Progressive
    Bits/(Pixel*Frame)          : 0.047
    Stream size                 : 1.48 GiB (74%)
    Title                       : CinemaniaHDD
    Writing library             : x264 core 148 r2715 7e75228
    Encoding settings           : cabac=1 / ref=4 / deblock=1:0:0 / analyse=0x3:0x111 / me=umh / subme=10 / psy=1 / psy_rd=1.00:0.00 / mixed_ref=1 / me_range=120 / chroma_me=1 / trellis=2 / 8x8dct=1 / cqm=0 / deadzone=21,11 / fast_pskip=1 / chroma_qp_offset=-2 / threads=8 / lookahead_threads=2 / sliced_threads=0 / nr=0 / decimate=1 / interlaced=0 / bluray_compat=0 / stitchable=1 / constrained_intra=0 / bframes=16 / b_pyramid=2 / b_adapt=2 / b_bias=0 / direct=3 / weightb=1 / open_gop=0 / weightp=2 / keyint=240 / keyint_min=121 / scenecut=0 / intra_refresh=0 / rc_lookahead=240 / rc=crf / mbtree=1 / crf=16.0 / qcomp=0.50 / qpmin=6 / qpmax=51 / qpstep=4 / vbv_maxrate=20000 / vbv_bufsize=25000 / crf_max=0.0 / nal_hrd=vbr / filler=0 / ip_ratio=1.40 / aq=1:0.80
    Default                     : Yes
    Forced                      : No
    Statistics Tags Issue       : mkvmerge v11.0.0 ('Alive') 64bit 2019-04-10 23:44:15 / mkvmerge v11.0.0 ('Alive') 64bit 2019-04-10 23:44:15 / UTC 2019-04-03 12:20:03
    FromStats_BitRate           : 2391194
    FromStats_Duration          : 01:30:52.364000000
    FromStats_FrameCount        : 130726
    FromStats_StreamSize        : 1629707981

    Audio #1
    ID                          : 2
    Format                      : AC-3
    Format/Info                 : Audio Coding 3
    Commercial name             : Dolby Digital
    Codec ID                    : A_AC3
    Duration                    : 1 h 30 min
    Bit rate mode               : Constant
    Bit rate                    : 384 kb/s
    Channel(s)                  : 6 channels
    Channel layout              : L R C LFE Ls Rs
    Sampling rate               : 48.0 kHz
    Frame rate                  : 31.250 FPS (1536 SPF)
    Bit depth                   : 16 bits
    Compression mode            : Lossy
    Stream size                 : 250 MiB (12%)
    Title                       : Español latino [CinemaniaHDD]
    Language                    : Spanish
    Service kind                : Complete Main
    Default                     : Yes
    Forced                      : No
    Encoded date                : UTC 2019-04-08 23:23:54
    Statistics Tags Issue       : mkvmerge v11.0.0 ('Alive') 64bit 2019-04-10 23:44:15 / mkvmerge v11.0.0 ('Alive') 64bit 2019-04-10 23:44:15 / UTC 2019-04-03 12:20:03
    FromStats_BitRate           : 384000
    FromStats_Duration          : 01:30:53.984000000
    FromStats_FrameCount        : 170437
    FromStats_StreamSize        : 261791232

    Audio #2
    ID                          : 3
    Format                      : AC-3
    Format/Info                 : Audio Coding 3
    Commercial name             : Dolby Digital
    Codec ID                    : A_AC3
    Duration                    : 1 h 30 min
    Bit rate mode               : Constant
    Bit rate                    : 384 kb/s
    Channel(s)                  : 6 channels
    Channel layout              : L R C LFE Ls Rs
    Sampling rate               : 48.0 kHz
    Frame rate                  : 31.250 FPS (1536 SPF)
    Bit depth                   : 16 bits
    Compression mode            : Lossy
    Stream size                 : 250 MiB (12%)
    Title                       : Inglés [CinemaniaHDD]
    Language                    : English
    Service kind                : Complete Main
    Default                     : No
    Forced                      : No
    Encoded date                : UTC 2019-04-03 12:20:03
    Statistics Tags Issue       : mkvmerge v11.0.0 ('Alive') 64bit 2019-04-10 23:44:15 / mkvmerge v11.0.0 ('Alive') 64bit 2019-04-10 23:44:15 / UTC 2019-04-03 12:20:03
    FromStats_BitRate           : 384000
    FromStats_Duration          : 01:30:53.984000000
    FromStats_FrameCount        : 170437
    FromStats_StreamSize        : 261791232

    Text #1
    ID                          : 4
    Format                      : UTF-8
    Codec ID                    : S_TEXT/UTF8
    Codec ID/Info               : UTF-8 Plain Text
    Title                       : Forzados [CinemaniaHDD]
    Language                    : Spanish
    Default                     : Yes
    Forced                      : Yes
    Statistics Tags Issue       : mkvmerge v11.0.0 ('Alive') 64bit 2019-04-10 23:44:15 / mkvmerge v11.0.0 ('Alive') 64bit 2019-04-10 23:44:15 / UTC 2019-04-03 12:20:03
    FromStats_BitRate           : 2
    FromStats_Duration          : 01:29:58.101000000
    FromStats_FrameCount        : 66
    FromStats_StreamSize        : 1931

    Text #2
    ID                          : 5
    Format                      : UTF-8
    Codec ID                    : S_TEXT/UTF8
    Codec ID/Info               : UTF-8 Plain Text
    Title                       : Español latino [CinemaniaHDD]
    Language                    : Spanish
    Default                     : No
    Forced                      : No
    Statistics Tags Issue       : mkvmerge v11.0.0 ('Alive') 64bit 2019-04-10 23:44:15 / mkvmerge v11.0.0 ('Alive') 64bit 2019-04-10 23:44:15 / UTC 2019-04-03 12:20:03
    FromStats_BitRate           : 24
    FromStats_Duration          : 01:29:58.143000000
    FromStats_FrameCount        : 609
    FromStats_StreamSize        : 16439

  • Peso: 2.01 GiB

Sinopsis

Unos seres terroríficos, que detectan a sus presas humanas por el sonido, han invadido la Tierra. Ally Andrews (Kiernan Shipka) tiene 16 años y hace 3 que perdió la audición. Cuando ella y su familia intentan llegar a un refugio lejano, descubren una secta siniestra que quiere explotar los agudizados sentidos de Ally.

Ficha técnica

  • Titulo original: The Silence
  • Fecha de lanzamiento: 16-05-2019 (Germany, United States of America)
  • Director: John R. Leonetti
  • Género: Terror

Video trailer de la película

Enlaces de descarga

Rip de Bluray

Descargar The Silence (2019) NF WEB-DL 1080p Latino




Aportes de DPeliculasHDmega la pass es:dpeliculashdmega.org Aportes de CinemaniaHD la pass es:cinemaniahdd.com
Guardado en : Terror

Películas relacionadas

  • Lobo Vikingo (2022) NF WEB-DL 1080p Latino

    Lobo Vikingo (2022) NF WEB-DL 1080p Latino

    2022
    Lobo Vikingo (2022) NF WEB-DL 1080p Latino

    1h 38m 2022

    Descargar Lobo Vikingo (2022) NF WEB-DL 1080p Latino. Thale (17) acaba de mudarse con sus padres a un...

    Director: Stig Svendsen

    Género: Netflix

    Actores: Vidar Magnussen

  • Asústame (2020) HD 1080p Latino

    Asústame (2020) HD 1080p Latino

    2020
    Asústame (2020) HD 1080p Latino

    1h 44m 2020

    Descargar Asústame (2020) HD 1080p Latino. Durante un corte de energía, dos extraños cuentan historias...

    Director: Josh Ruben

    Género: Comedia

    Actores: Rebecca Drysdale

  • Asústame (2020) PLACEBO Full HD 1080p Latino

    Asústame (2020) PLACEBO Full HD 1080p Latino

    2020
    Asústame (2020) PLACEBO Full HD 1080p Latino

    1h 44m 2020

    Descargar Asústame (2020) PLACEBO Full HD 1080p Latino. Durante un corte de energía, dos extraños...

    Director: Josh Ruben

    Género: Comedia

    Actores: Rebecca Drysdale

descargar The Silence (2019) NF WEB-DL 1080p Latino WEBDL 1080p gratis, The Silence (2019) NF WEB-DL 1080p Latino WEBDL mega 1 link, The Silence (2019) NF WEB-DL 1080p Latino WEBDL pelicula completa, descargar The Silence (2019) NF WEB-DL 1080p Latino WEBDL gratis en mega.

The Silence (2019) NF WEB-DL 1080p Latino pelicula full hd, The Silence (2019) NF WEB-DL 1080p Latino mega latino, The Silence (2019) NF WEB-DL 1080p Latino 4k latino, The Silence (2019) NF WEB-DL 1080p Latino pelicula completa, The Silence (2019) NF WEB-DL 1080p Latino descargar gratis, descargar The Silence (2019) NF WEB-DL 1080p Latino pelicula latino, The Silence (2019) NF WEB-DL 1080p Latino 1 link mega, The Silence (2019) NF WEB-DL 1080p Latino 1 link google drive, The Silence (2019) NF WEB-DL 1080p Latino hd 1080p latino.
Comentarios 0