×

¿Problemas para descargar con Mozilla, EDGE? Deshabilita la opción "Abrir vinculos en una pestaña nueva" tal como lo muestra ésta imagen.

El Resplandor (1980) US Director’s Cut 4K UHD HDR Latino

2.614 vistas

Información de El Resplandor (1980) US Director’s Cut 4K UHD HDR Latino

Datos de la película

  • Calidad: 4K HDR
  • Audio: Español Latino AC3 5.1 BLURAY - Ingles DTS 5.1 BLURAY
  • Subtitulos: Español Latino PGS - Ingles PGS
  • Resolución: 3840x2160p
  • Formato: MKV
  • Codec: HEVC
  • Encoder: IAMABLE
  • Mediainfo: Clic para Mostrar Datos Ver
  • El Resplandor (1980) DC Remastered UHD HDR+ Latino-CMHDD.mkv
    Format                      : Matroska
    Format version              : Version 4
    File size                   : 44.2 GiB
    Duration                    : 2 h 23 min
    Overall bit rate            : 44.1 Mb/s
    Movie name                  : The Shining (1980) CinemaniaHDD.Net
    Encoded date                : UTC 2019-10-05 02:40:57
    Writing application         : mkvmerge v35.0.0 ('All The Love In The World') 64-bit
    Writing library             : libebml v1.3.9 + libmatroska v1.5.2
    Attachments                 : CINEMANIAHD.png

    Video
    ID                          : 1
    Format                      : HEVC
    Format/Info                 : High Efficiency Video Coding
    Commercial name             : HDR10
    Format profile              : Main 10@L5.1@High
    Codec ID                    : V_MPEGH/ISO/HEVC
    Duration                    : 2 h 23 min
    Bit rate                    : 41.9 Mb/s
    Width                       : 3 840 pixels
    Height                      : 2 160 pixels
    Display aspect ratio        : 16:9
    Frame rate mode             : Constant
    Frame rate                  : 23.976 (24000/1001) FPS
    Color space                 : YUV
    Chroma subsampling          : 4:2:0 (Type 2)
    Bit depth                   : 10 bits
    Bits/(Pixel*Frame)          : 0.211
    Stream size                 : 42.1 GiB (95%)
    Title                       : 2160p HDR+(Plus) [Bluray]
    Writing library             : x265 3.1+11-de920e0a3183:[Windows][MSVC 1900][64 bit] 10bit
    Encoding settings           : cpuid=1176575 / frame-threads=6 / numa-pools=36 / wpp / no-pmode / no-pme / no-psnr / no-ssim / log-level=2 / input-csp=1 / input-res=3840x2160 / interlace=0 / total-frames=206811 / level-idc=51 / high-tier=1 / uhd-bd=0 / ref=4 / no-allow-non-conformance / repeat-headers / annexb / aud / hrd / info / hash=0 / no-temporal-layers / no-open-gop / min-keyint=24 / keyint=240 / gop-lookahead=0 / bframes=4 / b-adapt=2 / b-pyramid / bframe-bias=0 / rc-lookahead=25 / lookahead-slices=4 / scenecut=40 / radl=0 / no-splice / no-intra-refresh / ctu=64 / min-cu-size=8 / rect / no-amp / max-tu-size=32 / tu-inter-depth=1 / tu-intra-depth=1 / limit-tu=0 / rdoq-level=2 / dynamic-rd=0.00 / no-ssim-rd / signhide / no-tskip / nr-intra=0 / nr-inter=0 / no-constrained-intra / no-strong-intra-smoothing / max-merge=3 / limit-refs=3 / limit-modes / me=3 / subme=3 / merange=57 / temporal-mvp / hme / Level / weightp / no-weightb / no-analyze-src-pics / deblock=-3:-3 / no-sao / no-sao-non-deblock / rd=4 / no-early-skip / rskip / no-fast-intra / no-tskip-fast / no-cu-lossless / no-b-intra / no-splitrd-skip / rdpenalty=0 / psy-rd=2.00 / psy-rdoq=1.00 / no-rd-refine / no-lossless / cbqpoffs=0 / crqpoffs=0 / rc=crf / crf=15.0 / qcomp=0.60 / qpstep=4 / stats-write=0 / stats-read=0 / vbv-maxrate=160000 / vbv-bufsize=160000 / vbv-init=0.9 / crf-max=0.0 / crf-min=0.0 / ipratio=1.40 / pbratio=1.30 / aq-mode=2 / aq-strength=1.00 / cutree / zone-count=0 / no-strict-cbr / qg-size=32 / no-rc-grain / qpmax=69 / qpmin=0 / no-const-vbv / sar=1 / overscan=0 / videoformat=5 / range=0 / colorprim=9 / transfer=16 / colormatrix=9 / chromaloc=1 / chromaloc-top=2 / chromaloc-bottom=2 / display-window=0 / master-display=G(13250,34500)B(7500,3000)R(34000,16000)WP(15635,16450)L(40000000,50)cll=1633,114 / min-luma=0 / max-luma=1023 / log2-max-poc-lsb=8 / vui-timing-info / vui-hrd-info / slices=1 / no-opt-qp-pps / no-opt-ref-list-length-pps / no-multi-pass-opt-rps / scenecut-bias=0.05 / no-opt-cu-delta-qp / no-aq-motion / hdr / hdr-opt / dhdr10-opt / no-idr-recovery-sei / analysis-reuse-level=5 / scale-factor=0 / refine-intra=0 / refine-inter=0 / refine-mv=0 / refine-ctu-distortion=0 / no-limit-sao / ctu-info=0 / no-lowpass-dct / refine-analysis-type=0 / copy-pic=1 / max-ausize-factor=1.0 / no-dynamic-refine / no-single-sei / no-hevc-aq / no-svt / no-field / qp-adaptation-range=1.00
    Default                     : Yes
    Forced                      : No
    Color range                 : Limited
    Color primaries             : BT.2020
    Transfer characteristics    : PQ
    Matrix coefficients         : BT.2020 non-constant
    Mastering display color pri : Display P3
    Mastering display luminance : min: 0.0050 cd/m2, max: 4000 cd/m2
    Maximum Content Light Level : 1633 cd/m2
    Maximum Frame-Average Light : 114 cd/m2

    Audio #1
    ID                          : 2
    Format                      : AC-3
    Format/Info                 : Audio Coding 3
    Commercial name             : Dolby Digital
    Codec ID                    : A_AC3
    Duration                    : 2 h 23 min
    Bit rate mode               : Constant
    Bit rate                    : 640 kb/s
    Channel(s)                  : 6 channels
    Channel layout              : L R C LFE Ls Rs
    Sampling rate               : 48.0 kHz
    Frame rate                  : 31.250 FPS (1536 SPF)
    Bit depth                   : 16 bits
    Compression mode            : Lossy
    Stream size                 : 658 MiB (1%)
    Title                       : AC3_5.1_Bluray_Esp
    Language                    : Spanish
    Service kind                : Complete Main
    Default                     : Yes
    Forced                      : Yes

    Audio #2
    ID                          : 3
    Format                      : DTS
    Format/Info                 : Digital Theater Systems
    Codec ID                    : A_DTS
    Duration                    : 2 h 23 min
    Bit rate mode               : Constant
    Bit rate                    : 1 509 kb/s
    Channel(s)                  : 6 channels
    Channel layout              : C L R Ls Rs LFE
    Sampling rate               : 48.0 kHz
    Frame rate                  : 93.750 FPS (512 SPF)
    Bit depth                   : 24 bits
    Compression mode            : Lossy
    Stream size                 : 1.52 GiB (3%)
    Title                       : DTS_5.1_Bluray_Eng
    Language                    : English
    Default                     : No
    Forced                      : No

    Text #1
    ID                          : 4
    Format                      : PGS
    Muxing mode                 : zlib
    Codec ID                    : S_HDMV/PGS
    Codec ID/Info               : Picture based subtitle format used on BDs/HD-DVDs
    Duration                    : 2 h 18 min
    Bit rate                    : 18.3 kb/s
    Count of elements           : 2628
    Stream size                 : 18.1 MiB (0%)
    Title                       : Sub_Esp [PGS]
    Language                    : Spanish
    Default                     : No
    Forced                      : No

    Text #2
    ID                          : 5
    Format                      : PGS
    Muxing mode                 : zlib
    Codec ID                    : S_HDMV/PGS
    Codec ID/Info               : Picture based subtitle format used on BDs/HD-DVDs
    Duration                    : 2 h 16 min
    Bit rate                    : 23.4 kb/s
    Count of elements           : 3042
    Stream size                 : 22.8 MiB (0%)
    Title                       : Sub_Eng [PGS]
    Language                    : English
    Default                     : No
    Forced                      : No

    Text #3
    ID                          : 6
    Format                      : UTF-8
    Codec ID                    : S_TEXT/UTF8
    Codec ID/Info               : UTF-8 Plain Text
    Duration                    : 2 h 19 min
    Bit rate                    : 34 b/s
    Count of elements           : 1322
    Stream size                 : 34.8 KiB (0%)
    Title                       : Sub_Esp
    Language                    : Spanish
    Default                     : No
    Forced                      : No

    Menu
    00:00:00.000                : en:Chapter 01
    00:03:00.430                : en:Chapter 02
    00:05:05.138                : en:Chapter 03
    00:10:33.800                : en:Chapter 04
    00:12:08.394                : en:Chapter 05
    00:14:24.280                : en:Chapter 06
    00:17:37.932                : en:Chapter 07
    00:20:30.896                : en:Chapter 08
    00:24:58.622                : en:Chapter 09
    00:28:51.688                : en:Chapter 10
    00:34:10.215                : en:Chapter 11
    00:40:28.843                : en:Chapter 12
    00:46:00.925                : en:Chapter 13
    00:46:52.226                : en:Chapter 14
    00:49:17.329                : en:Chapter 15
    00:51:16.240                : en:Chapter 16
    00:57:01.918                : en:Chapter 17
    00:58:36.847                : en:Chapter 18
    01:02:37.170                : en:Chapter 19
    01:06:05.795                : en:Chapter 20
    01:09:00.762                : en:Chapter 21
    01:16:52.316                : en:Chapter 22
    01:22:18.642                : en:Chapter 23
    01:25:29.916                : en:Chapter 24
    01:31:41.162                : en:Chapter 25
    01:34:03.805                : en:Chapter 26
    01:35:48.618                : en:Chapter 27
    01:39:30.590                : en:Chapter 28
    01:43:49.932                : en:Chapter 29
    01:49:26.393                : en:Chapter 30
    01:54:24.441                : en:Chapter 31
    01:58:44.617                : en:Chapter 32
    02:01:09.554                : en:Chapter 33
    02:05:30.064                : en:Chapter 34
    02:07:32.687                : en:Chapter 35
    02:10:23.566                : en:Chapter 36
    02:12:10.089                : en:Chapter 37
    02:15:03.387                : en:Chapter 38
    02:18:57.037                : en:Chapter 39
    02:21:16.343                : en:Chapter 40

  • Peso: 44.2 GiB

Sinopsis

Descargar El Resplandor (1980) US Director’s Cut 4K UHD HDR Latino. Jack Torrance se traslada, junto a su mujer y a su hijo, al impresionante hotel Overlook, en Colorado, para encargarse del mantenimiento del mismo durante la temporada invernal, en la que permanece cerrado y aislado por la nieve. Su idea es escribir su novela al tiempo que cuida de las instalaciones durante esos largos y solitarios meses de invierno, pero desde su llegada al hotel, Jack comienza a padecer inquietantes transtornos de personalidad, al mismo tiempo que en el lugar comienzan a suceder diversos fenómenos paranormales.

Notas:

Del Encoder:
La pelicula cuenta con HDR10+ (HDR10 plus) o HDR Dinamico que basicamente supone una mejora ante el HDR Estandar dado que «indica al televisor cómo usar el HDR escena por escena o incluso fotograma a fotograma»  en lugar de dar informacion sobre la luminosidad desde el inicio de la pelicula. Si tu TV es compatible (verificar en las especificaciones) podrás disfrutar de la imagen con esta tecnologia pero si no es asi, no hay problema porque el HDR10 Estandar tambien funcionará si el HDR10+ no esta disponible

Sobre La Pelicula:
Cuando se estreno la pelicula en Estados Unidos la pelicula tenia una duracion de 146 min. Sin embargo al tiempo despues, el director recorto 2 minutos hacia el final del metraje reduciendo la duracion a 144 min. Pero despues de varias revisiones y Sircunstancias Stanley Kubrick decidio recortar aun mas la pelicula para su estreno fuera de los estados unidos en un aproximado de 30 min.
A menudo la version mas larga se le suele llamar erroneamente «Director’s Cut» cuando de hecho Stanley Kubrick Considera ambas versiones como Corte Del Director.

Ficha técnica

Video trailer de la película

Enlaces de descarga

Rip de Bluray

Descargar El Resplandor (1980) US Director’s Cut 4K UHD HDR Latino




Aportes de DPeliculasHDmega la pass es:dpeliculashdmega.org Aportes de CinemaniaHD la pass es:cinemaniahdd.com
Guardado en : 4K HDR , 4K UHD , Suspenso , Terror

Películas relacionadas

  • Tren Bala (2022) WEB-DL 4K UHD HDR Latino

    Tren Bala (2022) WEB-DL 4K UHD HDR Latino

    2022
    Tren Bala (2022) WEB-DL 4K UHD HDR Latino

    2h 7m 2022

    Descargar Tren Bala (2022) WEB-DL 4K UHD HDR Latino. El desafortunado asesino "Catarina" está decidido...

    Director: Paul Barry

    Género: 4K HDR

    Actores: Zooey Miyoshi

  • Tren Bala (2022) AMZN WEB-DL 1080p Latino

    Tren Bala (2022) AMZN WEB-DL 1080p Latino

    2022
    Tren Bala (2022) AMZN WEB-DL 1080p Latino

    2h 7m 2022

    Descargar Tren Bala (2022) AMZN WEB-DL 1080p Latino. Cinco asesinos a sueldo se encuentran a bordo de...

    Director: Paul Barry

    Género: Acción

    Actores: Zooey Miyoshi

  • Poltergeist (1982) REMUX 1080p Latino – CMHDD

    Poltergeist (1982) REMUX 1080p Latino – CMHDD

    1982
    Poltergeist (1982) REMUX 1080p Latino – CMHDD

    1h 54m 1982

    Una familia americana de clase media se traslada a vivir e una nueva casa en un aparentemente idílico...

    Director: Tobe Hooper

    Género: Terror

    Actores: Zelda Rubinstein

  • Poltergeist (1982) REMUX 4K Latino – CMHDD

    Poltergeist (1982) REMUX 4K Latino – CMHDD

    1982
    Poltergeist (1982) REMUX 4K Latino – CMHDD

    1h 54m 1982

    Una familia americana de clase media se traslada a vivir e una nueva casa en un aparentemente idílico...

    Director: Tobe Hooper

    Género: Terror

    Actores: Zelda Rubinstein

descargar El Resplandor (1980) US Director’s Cut 4K UHD HDR Latino 4K HDR 1080p gratis, El Resplandor (1980) US Director’s Cut 4K UHD HDR Latino 4K HDR mega 1 link, El Resplandor (1980) US Director’s Cut 4K UHD HDR Latino 4K HDR pelicula completa, descargar El Resplandor (1980) US Director’s Cut 4K UHD HDR Latino 4K HDR gratis en mega.

El Resplandor (1980) US Director’s Cut 4K UHD HDR Latino pelicula full hd, El Resplandor (1980) US Director’s Cut 4K UHD HDR Latino mega latino, El Resplandor (1980) US Director’s Cut 4K UHD HDR Latino 4k latino, El Resplandor (1980) US Director’s Cut 4K UHD HDR Latino pelicula completa, El Resplandor (1980) US Director’s Cut 4K UHD HDR Latino descargar gratis, descargar El Resplandor (1980) US Director’s Cut 4K UHD HDR Latino pelicula latino, El Resplandor (1980) US Director’s Cut 4K UHD HDR Latino 1 link mega, El Resplandor (1980) US Director’s Cut 4K UHD HDR Latino 1 link google drive, El Resplandor (1980) US Director’s Cut 4K UHD HDR Latino hd 1080p latino.
Comentarios 0