×

¿Problemas para descargar con Mozilla, EDGE? Deshabilita la opción "Abrir vinculos en una pestaña nueva" tal como lo muestra ésta imagen.

The Shawshank Redemption (1994) REMUX 4K HDR Latino – CMHDD

357 vistas

Información de The Shawshank Redemption (1994) REMUX 4K HDR Latino – CMHDD

Datos de la película

  • Calidad: 4K HDR
  • Audio: Español Latino AC3 2.0 BLURAY - Ingles DTS 5.1 BLURAY
  • Subtitulos: Español Latino PGS
  • Resolución: 3840x2160p
  • Formato: MKV
  • Codec: H.264
  • Encoder: Dracarys
  • Mediainfo: Clic para Mostrar Datos Ver
  • Format                      : Matroska
    Format version              : Version 4
    File size                   : 53.2 GiB
    Duration                    : 2 h 22 min
    Overall bit rate mode       : Variable
    Overall bit rate            : 53.5 Mb/s
    Movie name                  : The Shawshank Redemption (1994) REMUX 4K HDR Latino - CMHDD
    Encoded date                : UTC 2022-01-06 17:39:55
    Writing application         : mkvmerge v17.0.0 ('Be Ur Friend') 64-bit
    Writing library             : libebml v1.3.5 + libmatroska v1.4.8

    Video
    ID                          : 1
    Format                      : HEVC
    Format/Info                 : High Efficiency Video Coding
    Format profile              : Main 10@L5.1@High
    HDR format                  : SMPTE ST 2086, HDR10 compatible
    Codec ID                    : V_MPEGH/ISO/HEVC
    Duration                    : 2 h 22 min
    Bit rate                    : 49.0 Mb/s
    Width                       : 3 840 pixels
    Height                      : 2 160 pixels
    Display aspect ratio        : 16:9
    Frame rate mode             : Constant
    Frame rate                  : 23.976 (24000/1001) FPS
    Color space                 : YUV
    Chroma subsampling          : 4:2:0 (Type 2)
    Bit depth                   : 10 bits
    Bits/(Pixel*Frame)          : 0.247
    Stream size                 : 48.8 GiB (92%)
    Default                     : Yes
    Forced                      : No
    Color range                 : Limited
    Color primaries             : BT.2020
    Transfer characteristics    : PQ
    Matrix coefficients         : BT.2020 non-constant
    Mastering display color pri : Display P3
    Mastering display luminance : min: 0.0050 cd/m2, max: 4000 cd/m2
    Maximum Content Light Level : 833 cd/m2
    Maximum Frame-Average Light : 108 cd/m2

    Audio #1
    ID                          : 2
    Format                      : DTS XLL
    Format/Info                 : Digital Theater Systems
    Commercial name             : DTS-HD Master Audio
    Codec ID                    : A_DTS
    Duration                    : 2 h 22 min
    Bit rate mode               : Variable
    Bit rate                    : 4 207 kb/s
    Channel(s)                  : 6 channels
    Channel layout              : C L R Ls Rs LFE
    Sampling rate               : 48.0 kHz
    Frame rate                  : 93.750 FPS (512 SPF)
    Bit depth                   : 24 bits
    Compression mode            : Lossless
    Stream size                 : 4.19 GiB (8%)
    Language                    : English
    Default                     : No
    Forced                      : No

    Audio #2
    ID                          : 3
    Format                      : AC-3
    Format/Info                 : Audio Coding 3
    Commercial name             : Dolby Digital
    Format settings             : Dolby Surround
    Codec ID                    : A_AC3
    Duration                    : 2 h 22 min
    Bit rate mode               : Constant
    Bit rate                    : 192 kb/s
    Channel(s)                  : 2 channels
    Channel layout              : L R
    Sampling rate               : 48.0 kHz
    Frame rate                  : 31.250 FPS (1536 SPF)
    Compression mode            : Lossy
    Delay relative to video     : 23 ms
    Stream size                 : 196 MiB (0%)
    Language                    : Spanish
    Service kind                : Complete Main
    Default                     : Yes
    Forced                      : No

    Text #1
    ID                          : 4
    Format                      : PGS
    Muxing mode                 : zlib
    Codec ID                    : S_HDMV/PGS
    Codec ID/Info               : Picture based subtitle format used on BDs/HD-DVDs
    Duration                    : 2 h 17 min
    Bit rate                    : 29.6 kb/s
    Count of elements           : 3390
    Stream size                 : 29.1 MiB (0%)
    Language                    : Spanish
    Default                     : No
    Forced                      : No

    Text #2
    ID                          : 5
    Format                      : PGS
    Muxing mode                 : zlib
    Codec ID                    : S_HDMV/PGS
    Codec ID/Info               : Picture based subtitle format used on BDs/HD-DVDs
    Duration                    : 2 h 0 min
    Bit rate                    : 128 b/s
    Count of elements           : 14
    Stream size                 : 114 KiB (0%)
    Language                    : Spanish
    Default                     : No
    Forced                      : No

    Menu
    00:00:00.000                : en:Chapter 1
    00:04:40.154                : en:Chapter 2
    00:06:38.731                : en:Chapter 3
    00:10:07.356                : en:Chapter 4
    00:13:46.116                : en:Chapter 5
    00:17:59.953                : en:Chapter 6
    00:23:43.296                : en:Chapter 7
    00:29:01.114                : en:Chapter 8
    00:33:32.885                : en:Chapter 9
    00:38:50.953                : en:Chapter 10
    00:41:06.297                : en:Chapter 11
    00:42:40.683                : en:Chapter 12
    00:46:14.438                : en:Chapter 13
    00:48:14.474                : en:Chapter 14
    00:51:21.578                : en:Chapter 15
    00:57:19.144                : en:Chapter 16
    01:00:27.498                : en:Chapter 17
    01:05:45.858                : en:Chapter 18
    01:07:16.699                : en:Chapter 19
    01:11:03.717                : en:Chapter 20
    01:13:53.262                : en:Chapter 21
    01:15:55.592                : en:Chapter 22
    01:21:08.280                : en:Chapter 23
    01:23:58.992                : en:Chapter 24
    01:29:26.319                : en:Chapter 25
    01:32:10.525                : en:Chapter 26
    01:35:37.189                : en:Chapter 27
    01:38:28.611                : en:Chapter 28
    01:40:38.407                : en:Chapter 29
    01:47:23.186                : en:Chapter 30
    01:50:45.430                : en:Chapter 31
    01:54:31.155                : en:Chapter 32
    02:00:35.561                : en:Chapter 33
    02:04:09.358                : en:Chapter 34
    02:05:51.126                : en:Chapter 35
    02:08:25.864                : en:Chapter 36
    02:10:13.555                : en:Chapter 37
    02:12:56.176                : en:Chapter 38
    02:16:27.762                : en:Chapter 39
    02:18:07.612                : en:Chapter 40

  • Peso: 53.2 GiB

Sinopsis

Acusado del asesinato de su mujer, Andrew Dufresne, tras ser condenado a cadena perpetua, es enviado a la prisión de Shawshank. Con el paso de los años conseguirá ganarse la confianza del director del centro y el respeto de sus compañeros presidiarios, especialmente de Red, el jefe de la mafia de los sobornos.

Ficha técnica

Video trailer de la película

Enlaces de descarga

Rip de Bluray

Descargar The Shawshank Redemption (1994) REMUX 4K HDR Latino – CMHDD


Aportes de DPeliculasHDmega la pass es:dpeliculashdmega.org Aportes de CinemaniaHD la pass es:cinemaniahdd.com
Guardado en : Crimen , Drama

Películas relacionadas

descargar The Shawshank Redemption (1994) REMUX 4K HDR Latino – CMHDD 4K HDR 1080p gratis, The Shawshank Redemption (1994) REMUX 4K HDR Latino – CMHDD 4K HDR mega 1 link, The Shawshank Redemption (1994) REMUX 4K HDR Latino – CMHDD 4K HDR pelicula completa, descargar The Shawshank Redemption (1994) REMUX 4K HDR Latino – CMHDD 4K HDR gratis en mega.

The Shawshank Redemption (1994) REMUX 4K HDR Latino – CMHDD pelicula full hd, The Shawshank Redemption (1994) REMUX 4K HDR Latino – CMHDD mega latino, The Shawshank Redemption (1994) REMUX 4K HDR Latino – CMHDD 4k latino, The Shawshank Redemption (1994) REMUX 4K HDR Latino – CMHDD pelicula completa, The Shawshank Redemption (1994) REMUX 4K HDR Latino – CMHDD descargar gratis, descargar The Shawshank Redemption (1994) REMUX 4K HDR Latino – CMHDD pelicula latino, The Shawshank Redemption (1994) REMUX 4K HDR Latino – CMHDD 1 link mega, The Shawshank Redemption (1994) REMUX 4K HDR Latino – CMHDD 1 link google drive, The Shawshank Redemption (1994) REMUX 4K HDR Latino – CMHDD hd 1080p latino.
Comentarios 0