×

¿Problemas para descargar con Mozilla, EDGE? Deshabilita la opción "Abrir vinculos en una pestaña nueva" tal como lo muestra ésta imagen.

The Shape of Water (2017) REMUX 4K HDR Latino – CMHDD

130 vistas

Información de The Shape of Water (2017) REMUX 4K HDR Latino – CMHDD

Datos de la película

  • Calidad: 4K HDR
  • Audio: Español Latino AC3 5.1 BLURAY - Ingles DTS 5.1 BLURAY
  • Subtitulos: Español Latino PGS
  • Resolución: 3840x2160p
  • Formato: MKV
  • Codec: HEVC
  • Encoder: Dracarys
  • Mediainfo: Clic para Mostrar Datos Ver
  • Format                      : Matroska
    Format version              : Version 4
    File size                   : 48.7 GiB
    Duration                    : 2 h 3 min
    Overall bit rate mode       : Variable
    Overall bit rate            : 56.6 Mb/s
    Movie name                  : The Shape of Water (2017) REMUX 4K HDR Latino - CMHDD
    Encoded date                : UTC 2021-09-17 22:09:03
    Writing application         : mkvmerge v17.0.0 ('Be Ur Friend') 64-bit
    Writing library             : libebml v1.3.5 + libmatroska v1.4.8

    Video
    ID                          : 1
    Format                      : HEVC
    Format/Info                 : High Efficiency Video Coding
    Format profile              : Main 10@L5.1@High
    HDR format                  : SMPTE ST 2086, HDR10 compatible
    Codec ID                    : V_MPEGH/ISO/HEVC
    Duration                    : 2 h 3 min
    Bit rate                    : 51.8 Mb/s
    Width                       : 3 840 pixels
    Height                      : 2 160 pixels
    Display aspect ratio        : 16:9
    Frame rate mode             : Constant
    Frame rate                  : 23.976 (24000/1001) FPS
    Color space                 : YUV
    Chroma subsampling          : 4:2:0 (Type 2)
    Bit depth                   : 10 bits
    Bits/(Pixel*Frame)          : 0.261
    Stream size                 : 44.7 GiB (92%)
    Default                     : Yes
    Forced                      : No
    Color range                 : Limited
    Color primaries             : BT.2020
    Transfer characteristics    : PQ
    Matrix coefficients         : BT.2020 non-constant
    Mastering display color pri : Display P3
    Mastering display luminance : min: 0.0050 cd/m2, max: 1000 cd/m2

    Audio #1
    ID                          : 2
    Format                      : DTS XLL
    Format/Info                 : Digital Theater Systems
    Commercial name             : DTS-HD Master Audio
    Codec ID                    : A_DTS
    Duration                    : 2 h 3 min
    Bit rate mode               : Variable
    Bit rate                    : 3 831 kb/s
    Channel(s)                  : 6 channels
    Channel layout              : C L R Ls Rs LFE
    Sampling rate               : 48.0 kHz
    Frame rate                  : 93.750 FPS (512 SPF)
    Bit depth                   : 24 bits
    Compression mode            : Lossless
    Stream size                 : 3.30 GiB (7%)
    Language                    : English
    Default                     : No
    Forced                      : No

    Audio #2
    ID                          : 3
    Format                      : AC-3
    Format/Info                 : Audio Coding 3
    Commercial name             : Dolby Digital
    Codec ID                    : A_AC3
    Duration                    : 2 h 3 min
    Bit rate mode               : Constant
    Bit rate                    : 448 kb/s
    Channel(s)                  : 6 channels
    Channel layout              : L R C LFE Ls Rs
    Sampling rate               : 48.0 kHz
    Frame rate                  : 31.250 FPS (1536 SPF)
    Compression mode            : Lossy
    Delay relative to video     : 28 ms
    Stream size                 : 395 MiB (1%)
    Language                    : English
    Service kind                : Complete Main
    Default                     : No
    Forced                      : No

    Audio #3
    ID                          : 4
    Format                      : AC-3
    Format/Info                 : Audio Coding 3
    Commercial name             : Dolby Digital
    Codec ID                    : A_AC3
    Duration                    : 2 h 3 min
    Bit rate mode               : Constant
    Bit rate                    : 448 kb/s
    Channel(s)                  : 6 channels
    Channel layout              : L R C LFE Ls Rs
    Sampling rate               : 48.0 kHz
    Frame rate                  : 31.250 FPS (1536 SPF)
    Compression mode            : Lossy
    Delay relative to video     : 28 ms
    Stream size                 : 395 MiB (1%)
    Language                    : Spanish
    Service kind                : Complete Main
    Default                     : Yes
    Forced                      : No

    Text
    ID                          : 5
    Format                      : PGS
    Muxing mode                 : zlib
    Codec ID                    : S_HDMV/PGS
    Codec ID/Info               : Picture based subtitle format used on BDs/HD-DVDs
    Duration                    : 2 h 1 min
    Bit rate                    : 15.8 kb/s
    Count of elements           : 2759
    Stream size                 : 13.7 MiB (0%)
    Language                    : Spanish
    Default                     : No
    Forced                      : No

    Menu
    00:00:00.000                : en:Chapter 1
    00:06:24.467                : en:Chapter 2
    00:12:54.774                : en:Chapter 3
    00:18:32.986                : en:Chapter 4
    00:23:45.590                : en:Chapter 5
    00:29:39.652                : en:Chapter 6
    00:35:29.836                : en:Chapter 7
    00:39:30.534                : en:Chapter 8
    00:42:42.434                : en:Chapter 9
    00:48:34.036                : en:Chapter 10
    00:52:26.935                : en:Chapter 11
    00:57:30.196                : en:Chapter 12
    01:01:52.542                : en:Chapter 13
    01:07:35.551                : en:Chapter 14
    01:12:13.495                : en:Chapter 15
    01:17:50.791                : en:Chapter 16
    01:21:17.122                : en:Chapter 17
    01:26:05.910                : en:Chapter 18
    01:32:48.479                : en:Chapter 19
    01:37:18.749                : en:Chapter 20
    01:43:24.114                : en:Chapter 21
    01:46:06.610                : en:Chapter 22
    01:50:31.666                : en:Chapter 23
    01:58:34.857                : en:Chapter 24

  • Peso: 48.7 GiB

Sinopsis

Elisa es una joven muda que trabaja como conserje en un laboratorio en 1963, en plena Guerra Fría, donde se enamorará de un hombre anfibio que se encuentra ahí recluido.

Ficha técnica

Video trailer de la película

Enlaces de descarga

Rip de Bluray

Descargar The Shape of Water (2017) REMUX 4K HDR Latino – CMHDD


Aportes de DPeliculasHDmega la pass es:dpeliculashdmega.org Aportes de CinemaniaHD la pass es:cinemaniahdd.com
Guardado en : Drama , Fantasía , Romance

Películas relacionadas

descargar The Shape of Water (2017) REMUX 4K HDR Latino – CMHDD 4K HDR 1080p gratis, The Shape of Water (2017) REMUX 4K HDR Latino – CMHDD 4K HDR mega 1 link, The Shape of Water (2017) REMUX 4K HDR Latino – CMHDD 4K HDR pelicula completa, descargar The Shape of Water (2017) REMUX 4K HDR Latino – CMHDD 4K HDR gratis en mega.

The Shape of Water (2017) REMUX 4K HDR Latino – CMHDD pelicula full hd, The Shape of Water (2017) REMUX 4K HDR Latino – CMHDD mega latino, The Shape of Water (2017) REMUX 4K HDR Latino – CMHDD 4k latino, The Shape of Water (2017) REMUX 4K HDR Latino – CMHDD pelicula completa, The Shape of Water (2017) REMUX 4K HDR Latino – CMHDD descargar gratis, descargar The Shape of Water (2017) REMUX 4K HDR Latino – CMHDD pelicula latino, The Shape of Water (2017) REMUX 4K HDR Latino – CMHDD 1 link mega, The Shape of Water (2017) REMUX 4K HDR Latino – CMHDD 1 link google drive, The Shape of Water (2017) REMUX 4K HDR Latino – CMHDD hd 1080p latino.