×

¿Problemas para descargar con Mozilla, EDGE? Deshabilita la opción "Abrir vinculos en una pestaña nueva" tal como lo muestra ésta imagen.

The Shack (2017) WEB-DL 1080p Latino – CMHDD

124 vistas

Información de The Shack (2017) WEB-DL 1080p Latino – CMHDD

Datos de la película

  • Calidad: WEBDL
  • Audio: Español Latino AC3 5.1 WEB-DL - Ingles AC3 5.1 WEB-DL
  • Subtitulos: Español Latino SRT
  • Resolución: 1920x816p
  • Formato: MKV
  • Codec: H.264
  • Encoder: Dracarys
  • Mediainfo: Clic para Mostrar Datos Ver
  • Format                      : Matroska
    Format version              : Version 4
    File size                   : 7.68 GiB
    Duration                    : 2 h 12 min
    Overall bit rate            : 8 309 kb/s
    Movie name                  : The Shack (2017) WEB-DL 1080p Latino - CMHDD
    Encoded date                : UTC 2024-01-14 23:40:36
    Writing application         : mkvmerge v47.0.0 ('Black Flag') 64-bit
    Writing library             : libebml v1.3.10 + libmatroska v1.5.2

    Video
    ID                          : 1
    Format                      : AVC
    Format/Info                 : Advanced Video Codec
    Format profile              : High@L4
    Format settings             : CABAC / 4 Ref Frames
    Format settings, CABAC      : Yes
    Format settings, Reference  : 4 frames
    Codec ID                    : V_MPEG4/ISO/AVC
    Duration                    : 2 h 12 min
    Bit rate mode               : Constant
    Bit rate                    : 7 026 kb/s
    Nominal bit rate            : 10 000 kb/s
    Width                       : 1 920 pixels
    Height                      : 816 pixels
    Display aspect ratio        : 2.35:1
    Frame rate mode             : Constant
    Frame rate                  : 23.976 (24000/1001) FPS
    Color space                 : YUV
    Chroma subsampling          : 4:2:0
    Bit depth                   : 8 bits
    Scan type                   : Progressive
    Bits/(Pixel*Frame)          : 0.187
    Stream size                 : 6.50 GiB (85%)
    Language                    : Spanish
    Default                     : Yes
    Forced                      : No
    Color range                 : Limited
    Color primaries             : BT.709
    Transfer characteristics    : BT.709
    Matrix coefficients         : BT.709

    Audio #1
    ID                          : 2
    Format                      : E-AC-3
    Format/Info                 : Enhanced AC-3
    Commercial name             : Dolby Digital Plus
    Codec ID                    : A_EAC3
    Duration                    : 2 h 12 min
    Bit rate mode               : Constant
    Bit rate                    : 640 kb/s
    Channel(s)                  : 6 channels
    Channel layout              : L R C LFE Ls Rs
    Sampling rate               : 48.0 kHz
    Frame rate                  : 31.250 FPS (1536 SPF)
    Compression mode            : Lossy
    Stream size                 : 606 MiB (8%)
    Language                    : Spanish
    Service kind                : Complete Main
    Default                     : Yes
    Forced                      : No

    Audio #2
    ID                          : 3
    Format                      : E-AC-3
    Format/Info                 : Enhanced AC-3
    Commercial name             : Dolby Digital Plus
    Codec ID                    : A_EAC3
    Duration                    : 2 h 12 min
    Bit rate mode               : Constant
    Bit rate                    : 640 kb/s
    Channel(s)                  : 6 channels
    Channel layout              : L R C LFE Ls Rs
    Sampling rate               : 48.0 kHz
    Frame rate                  : 31.250 FPS (1536 SPF)
    Compression mode            : Lossy
    Stream size                 : 606 MiB (8%)
    Language                    : English
    Service kind                : Complete Main
    Default                     : No
    Forced                      : No

    Text
    ID                          : 4
    Format                      : UTF-8
    Codec ID                    : S_TEXT/UTF8
    Codec ID/Info               : UTF-8 Plain Text
    Duration                    : 2 h 4 min
    Bit rate                    : 40 b/s
    Frame rate                  : 0.177 FPS
    Count of elements           : 1326
    Stream size                 : 37.1 KiB (0%)
    Language                    : Spanish
    Default                     : No
    Forced                      : No

     

  • Peso: 7.68 GiB

Sinopsis

Después de sufrir una tragedia familiar, Mack Phillips cae en una profunda depresión que le lleva a cuestionar todas sus creencias. Sumido en una crisis de fe, recibe una enigmática carta donde un misterioso personaje le cita en una cabaña abandonada en lo más profundo de los bosques de Oregón. A pesar de sus dudas, Mack viaja a la cabaña, donde se encontrará con alguien inesperado. Este encuentro conducirá a Mack a enfrentarse a importantes verdades, que no sólo transformarán su comprensión de la tragedia sino que harán que su vida cambie para siempre.

Ficha técnica

Video trailer de la película

Enlaces de descarga

Rip de Bluray

Descargar The Shack (2017) WEB-DL 1080p Latino – CMHDD




Aportes de DPeliculasHDmega la pass es:dpeliculashdmega.org Aportes de CinemaniaHD la pass es:cinemaniahdd.com Aportes recientes:cinemaniahdd.net
Guardado en : Drama , Fantasía

Películas relacionadas

descargar The Shack (2017) WEB-DL 1080p Latino – CMHDD WEBDL 1080p gratis, The Shack (2017) WEB-DL 1080p Latino – CMHDD WEBDL mega 1 link, The Shack (2017) WEB-DL 1080p Latino – CMHDD WEBDL pelicula completa, descargar The Shack (2017) WEB-DL 1080p Latino – CMHDD WEBDL gratis en mega.

The Shack (2017) WEB-DL 1080p Latino – CMHDD pelicula full hd, The Shack (2017) WEB-DL 1080p Latino – CMHDD mega latino, The Shack (2017) WEB-DL 1080p Latino – CMHDD 4k latino, The Shack (2017) WEB-DL 1080p Latino – CMHDD pelicula completa, The Shack (2017) WEB-DL 1080p Latino – CMHDD descargar gratis, descargar The Shack (2017) WEB-DL 1080p Latino – CMHDD pelicula latino, The Shack (2017) WEB-DL 1080p Latino – CMHDD 1 link mega, The Shack (2017) WEB-DL 1080p Latino – CMHDD 1 link google drive, The Shack (2017) WEB-DL 1080p Latino – CMHDD hd 1080p latino.
Comentarios 0