×

¿Problemas para descargar con Mozilla, EDGE? Deshabilita la opción "Abrir vinculos en una pestaña nueva" tal como lo muestra ésta imagen.

The Secret Diary of an Exchange Student (2021) NF WEB-DL 1080p Latino

158 vistas

Información de The Secret Diary of an Exchange Student (2021) NF WEB-DL 1080p Latino

Datos de la película

  • Calidad:
  • Audio: Español Latino AC3 5.1 Netflix
  • Subtitulos: Español Latino SRT- FORZADOS SRT
  • Resolución: 1920x1080
  • Formato: MKV
  • Codec: H.264
  • Encoder: cinemaniahdd
  • Mediainfo: Clic para Mostrar Datos Ver
  • The Secret Diary of an Exchange Student (2021) NF WEB-DL 1080p Latino [CNMNHDD].mkv
    Format                      : Matroska
    Format version              : Version 4
    File size                   : 2.34 GiB
    Duration                    : 1 h 36 min
    Overall bit rate mode       : Variable
    Overall bit rate            : 3 471 kb/s
    Encoded date                : UTC 2021-08-20 23:50:10
    Writing application         : mkvmerge v43.0.0 ('The Quartermaster') 64-bit
    Writing library             : libebml v1.3.10 + libmatroska v1.5.2

    Video
    ID                          : 1
    Format                      : AVC
    Format/Info                 : Advanced Video Codec
    Format profile              : Main@L4
    Format settings             : CABAC / 3 Ref Frames
    Format settings, CABAC      : Yes
    Format settings, Reference  : 3 frames
    Codec ID                    : V_MPEG4/ISO/AVC
    Duration                    : 1 h 36 min
    Bit rate mode               : Variable
    Bit rate                    : 3 085 kb/s
    Nominal bit rate            : 2 110 kb/s
    Maximum bit rate            : 6 330 kb/s
    Width                       : 1 920 pixels
    Height                      : 1 080 pixels
    Display aspect ratio        : 16:9
    Frame rate mode             : Constant
    Frame rate                  : 23.976 (24000/1001) FPS
    Color space                 : YUV
    Chroma subsampling          : 4:2:0
    Bit depth                   : 8 bits
    Scan type                   : Progressive
    Bits/(Pixel*Frame)          : 0.062
    Stream size                 : 2.08 GiB (89%)
    Writing library             : x264 core 148 r2722 1b0121b
    Encoding settings           : cabac=1 / ref=3 / deblock=1:0:0 / analyse=0x1:0x111 / me=umh / subme=10 / psy=1 / psy_rd=1.00:0.00 / mixed_ref=1 / me_range=24 / chroma_me=1 / trellis=2 / 8x8dct=0 / cqm=0 / deadzone=21,11 / fast_pskip=1 / chroma_qp_offset=-2 / threads=8 / lookahead_threads=1 / sliced_threads=0 / nr=0 / decimate=1 / interlaced=0 / bluray_compat=0 / stitchable=1 / constrained_intra=0 / bframes=2 / b_pyramid=0 / b_adapt=2 / b_bias=0 / direct=3 / weightb=1 / open_gop=0 / weightp=2 / keyint=250 / keyint_min=23 / scenecut=0 / intra_refresh=0 / rc_lookahead=48 / rc=2pass / mbtree=1 / bitrate=2110 / ratetol=1.0 / qcomp=0.50 / qpmin=6 / qpmax=51 / qpstep=4 / cplxblur=20.0 / qblur=0.5 / vbv_maxrate=6330 / vbv_bufsize=8440 / nal_hrd=vbr / filler=0 / ip_ratio=1.40 / aq=1:1.00
    Default                     : Yes
    Forced                      : No

    Audio
    ID                          : 2
    Format                      : AC-3
    Format/Info                 : Audio Coding 3
    Commercial name             : Dolby Digital
    Codec ID                    : A_AC3
    Duration                    : 1 h 36 min
    Bit rate mode               : Constant
    Bit rate                    : 384 kb/s
    Channel(s)                  : 6 channels
    Channel layout              : L R C LFE Ls Rs
    Sampling rate               : 48.0 kHz
    Frame rate                  : 31.250 FPS (1536 SPF)
    Compression mode            : Lossy
    Stream size                 : 265 MiB (11%)
    Title                       : Latin American
    Language                    : Spanish
    Service kind                : Complete Main
    Default                     : Yes
    Forced                      : No

    Text #1
    ID                          : 3
    Format                      : UTF-8
    Codec ID                    : S_TEXT/UTF8
    Codec ID/Info               : UTF-8 Plain Text
    Duration                    : 1 h 35 min
    Bit rate                    : 13 b/s
    Count of elements           : 372
    Stream size                 : 9.43 KiB (0%)
    Title                       : Latin American (Forced)
    Language                    : Spanish
    Default                     : Yes
    Forced                      : Yes

    Text #2
    ID                          : 4
    Format                      : UTF-8
    Codec ID                    : S_TEXT/UTF8
    Codec ID/Info               : UTF-8 Plain Text
    Duration                    : 1 h 35 min
    Bit rate                    : 62 b/s
    Count of elements           : 1516
    Stream size                 : 43.8 KiB (0%)
    Title                       : Latin American
    Language                    : Spanish
    Default                     : No
    Forced                      : No

     

  • Peso: 2.34 GiB

Sinopsis

Dos mejores amigos se embarcan en una aventura que les cambiará la vida en el extranjero como estudiantes de intercambio.

Ficha técnica

Video trailer de la película

Enlaces de descarga

Rip de Bluray

Descargar The Secret Diary of an Exchange Student (2021) NF WEB-DL 1080p Latino




Aportes de DPeliculasHDmega la pass es:dpeliculashdmega.org Aportes de CinemaniaHD la pass es:cinemaniahdd.com
Guardado en : Comedia , Netflix , Romance

Películas relacionadas

descargar The Secret Diary of an Exchange Student (2021) NF WEB-DL 1080p Latino 1080p gratis, The Secret Diary of an Exchange Student (2021) NF WEB-DL 1080p Latino mega 1 link, The Secret Diary of an Exchange Student (2021) NF WEB-DL 1080p Latino pelicula completa, descargar The Secret Diary of an Exchange Student (2021) NF WEB-DL 1080p Latino gratis en mega.

The Secret Diary of an Exchange Student (2021) NF WEB-DL 1080p Latino pelicula full hd, The Secret Diary of an Exchange Student (2021) NF WEB-DL 1080p Latino mega latino, The Secret Diary of an Exchange Student (2021) NF WEB-DL 1080p Latino 4k latino, The Secret Diary of an Exchange Student (2021) NF WEB-DL 1080p Latino pelicula completa, The Secret Diary of an Exchange Student (2021) NF WEB-DL 1080p Latino descargar gratis, descargar The Secret Diary of an Exchange Student (2021) NF WEB-DL 1080p Latino pelicula latino, The Secret Diary of an Exchange Student (2021) NF WEB-DL 1080p Latino 1 link mega, The Secret Diary of an Exchange Student (2021) NF WEB-DL 1080p Latino 1 link google drive, The Secret Diary of an Exchange Student (2021) NF WEB-DL 1080p Latino hd 1080p latino.
Comentarios 0