×

¿Problemas para descargar con Mozilla, EDGE? Deshabilita la opción "Abrir vinculos en una pestaña nueva" tal como lo muestra ésta imagen.

The Rundown (2003) REMUX 1080p Latino – CMHDD

119 vistas

Información de The Rundown (2003) REMUX 1080p Latino – CMHDD

Datos de la película

  • Calidad: Full 1080p
  • Audio: Se especifica abajo de la Sinopsis
  • Subtitulos: Español Latino PGS
  • Resolución: 1920x1080p
  • Formato: MKV
  • Codec: H.264
  • Encoder: Dracarys
  • Mediainfo: Clic para Mostrar Datos Ver
  • Format                      : Matroska
    Format version              : Version 4
    File size                   : 21.2 GiB
    Duration                    : 1 h 44 min
    Overall bit rate mode       : Variable
    Overall bit rate            : 29.1 Mb/s
    Movie name                  : The Rundown (2003) REMUX 1080p Latino - CMHDD
    Encoded date                : UTC 2021-12-29 19:57:45
    Writing application         : mkvmerge v17.0.0 ('Be Ur Friend') 64-bit
    Writing library             : libebml v1.3.5 + libmatroska v1.4.8

    Video
    ID                          : 1
    Format                      : AVC
    Format/Info                 : Advanced Video Codec
    Format profile              : High@L4.1
    Format settings             : CABAC / 4 Ref Frames
    Format settings, CABAC      : Yes
    Format settings, Reference  : 4 frames
    Codec ID                    : V_MPEG4/ISO/AVC
    Duration                    : 1 h 44 min
    Bit rate mode               : Variable
    Bit rate                    : 26.9 Mb/s
    Maximum bit rate            : 31.0 Mb/s
    Width                       : 1 920 pixels
    Height                      : 1 080 pixels
    Display aspect ratio        : 16:9
    Frame rate mode             : Constant
    Frame rate                  : 23.976 (24000/1001) FPS
    Standard                    : NTSC
    Color space                 : YUV
    Chroma subsampling          : 4:2:0
    Bit depth                   : 8 bits
    Scan type                   : Progressive
    Bits/(Pixel*Frame)          : 0.541
    Stream size                 : 19.6 GiB (92%)
    Default                     : Yes
    Forced                      : No
    Color range                 : Limited
    Color primaries             : BT.709
    Transfer characteristics    : BT.709
    Matrix coefficients         : BT.709

    Audio #1
    ID                          : 2
    Format                      : MLP FBA
    Format/Info                 : Meridian Lossless Packing FBA
    Commercial name             : Dolby TrueHD
    Codec ID                    : A_TRUEHD
    Duration                    : 1 h 44 min
    Bit rate mode               : Variable
    Bit rate                    : 1 657 kb/s
    Maximum bit rate            : 3 267 kb/s
    Channel(s)                  : 6 channels
    Channel layout              : L R C LFE Ls Rs
    Sampling rate               : 48.0 kHz
    Frame rate                  : 1 200.000 FPS (40 SPF)
    Compression mode            : Lossless
    Stream size                 : 1.21 GiB (6%)
    Language                    : Italian
    Default                     : No
    Forced                      : No

    Audio #2
    ID                          : 3
    Format                      : AC-3
    Format/Info                 : Audio Coding 3
    Commercial name             : Dolby Digital
    Codec ID                    : A_AC3
    Duration                    : 1 h 44 min
    Bit rate mode               : Constant
    Bit rate                    : 448 kb/s
    Channel(s)                  : 6 channels
    Channel layout              : L R C LFE Ls Rs
    Sampling rate               : 48.0 kHz
    Frame rate                  : 31.250 FPS (1536 SPF)
    Compression mode            : Lossy
    Stream size                 : 334 MiB (2%)
    Language                    : Spanish
    Service kind                : Complete Main
    Default                     : Yes
    Forced                      : No

    Text
    ID                          : 4
    Format                      : PGS
    Muxing mode                 : zlib
    Codec ID                    : S_HDMV/PGS
    Codec ID/Info               : Picture based subtitle format used on BDs/HD-DVDs
    Duration                    : 1 h 36 min
    Bit rate                    : 25.4 kb/s
    Count of elements           : 2096
    Stream size                 : 17.6 MiB (0%)
    Language                    : Spanish
    Default                     : No
    Forced                      : No

    Menu
    00:00:00.000                : en:Chapter 1
    00:05:57.857                : en:Chapter 2
    00:11:31.941                : en:Chapter 3
    00:16:29.238                : en:Chapter 4
    00:23:49.261                : en:Chapter 5
    00:29:18.006                : en:Chapter 6
    00:36:12.295                : en:Chapter 7
    00:42:17.159                : en:Chapter 8
    00:48:35.245                : en:Chapter 9
    00:54:23.051                : en:Chapter 10
    01:02:12.603                : en:Chapter 11
    01:08:52.545                : en:Chapter 12
    01:16:15.445                : en:Chapter 13
    01:23:27.377                : en:Chapter 14
    01:29:43.461                : en:Chapter 15
    01:32:50.231                : en:Chapter 16

  • Peso: 21.2 GiB

Sinopsis

Para pagar una deuda, un cazador de recompensas (The Rock) viaja a Helldorado, una ciudad en lo profundo de la jungla del Amazonas, para capturar a un convicto (Scott). Pero cuando llega, descubre que a quien tiene que detener es sólo un muchacho ávido de emociones que busca riqueza, y ambos formarán equipo para intentar encontrar una mina llena de oro.

 

 

Latino: AC3 5.1  –  Inglés: TrueHD 5.1

Ficha técnica

Video trailer de la película

Enlaces de descarga

Rip de Bluray

Descargar The Rundown (2003) REMUX 1080p Latino – CMHDD


Aportes de DPeliculasHDmega la pass es:dpeliculashdmega.org Aportes de CinemaniaHD la pass es:cinemaniahdd.com
Guardado en : Acción , Aventura , Comedia , Suspenso

Películas relacionadas

  • Hot Summer Nights (2017) 4K-SDR WEB-DL 2160p Latino

    Hot Summer Nights (2017) 4K-SDR WEB-DL 2160p Latino

    2018
    Hot Summer Nights (2017) 4K-SDR WEB-DL 2160p Latino

    1h 47m 2018

    Daniel es un tímido adolescente que comienza a vender marihuana, entrando en un mundo tentador pero...

    Director: Stephen W. Moore

    Género: 4K HDR

    Actores: Zack Shires

  • Hot Summer Nights (2017) AMZN WEB-DL 1080p Latino

    Hot Summer Nights (2017) AMZN WEB-DL 1080p Latino

    2018
    Hot Summer Nights (2017) AMZN WEB-DL 1080p Latino

    1h 47m 2018

    Daniel es un tímido adolescente que comienza a vender marihuana, entrando en un mundo tentador pero...

    Director: Stephen W. Moore

    Género: Comedia

    Actores: Zack Shires

  • Wire Room (2022) HD 1080p Latino

    Wire Room (2022) HD 1080p Latino

    2022
    Wire Room (2022) HD 1080p Latino

    1h 37m 2022

    Descargar Wire Room (2022) HD 1080p Latino. Mientras está de servicio en la sala de cables, un agente...

    Director: Matt Eskandari

    Género: Acción

    Actores: Texas Battle

descargar The Rundown (2003) REMUX 1080p Latino – CMHDD Full 1080p 1080p gratis, The Rundown (2003) REMUX 1080p Latino – CMHDD Full 1080p mega 1 link, The Rundown (2003) REMUX 1080p Latino – CMHDD Full 1080p pelicula completa, descargar The Rundown (2003) REMUX 1080p Latino – CMHDD Full 1080p gratis en mega.

The Rundown (2003) REMUX 1080p Latino – CMHDD pelicula full hd, The Rundown (2003) REMUX 1080p Latino – CMHDD mega latino, The Rundown (2003) REMUX 1080p Latino – CMHDD 4k latino, The Rundown (2003) REMUX 1080p Latino – CMHDD pelicula completa, The Rundown (2003) REMUX 1080p Latino – CMHDD descargar gratis, descargar The Rundown (2003) REMUX 1080p Latino – CMHDD pelicula latino, The Rundown (2003) REMUX 1080p Latino – CMHDD 1 link mega, The Rundown (2003) REMUX 1080p Latino – CMHDD 1 link google drive, The Rundown (2003) REMUX 1080p Latino – CMHDD hd 1080p latino.
Comentarios 0