×

¿Problemas para descargar con Mozilla, EDGE? Deshabilita la opción "Abrir vinculos en una pestaña nueva" tal como lo muestra ésta imagen.

The Ritual (2017) [NF] WEB-DL 1080p Latino – CMHDD

306 vistas

Información de The Ritual (2017) [NF] WEB-DL 1080p Latino – CMHDD

Datos de la película

  • Calidad: WEBDL
  • Audio: Español Latino AC3 5.1 Netflix - Ingles AC3 5.1 Netflix
  • Subtitulos: Español Latino SRT- FORZADOS SRT
  • Resolución: 1920x958p
  • Formato: MKV
  • Codec: H.264
  • Encoder: Dracarys
  • Mediainfo: Clic para Mostrar Datos Ver
  • Format                      : Matroska
    Format version              : Version 4
    File size                   : 3.72 GiB
    Duration                    : 1 h 34 min
    Overall bit rate            : 5 656 kb/s
    Movie name                  : The Ritual (2017) [NF] WEB-DL 1080p Latino - CMHDD
    Encoded date                : UTC 2020-12-06 23:48:29
    Writing application         : mkvmerge v51.0.0 ('I Wish') 64-bit
    Writing library             : libebml v1.4.0 + libmatroska v1.6.2

    Video
    ID                          : 1
    Format                      : AVC
    Format/Info                 : Advanced Video Codec
    Format profile              : High@L4
    Format settings             : CABAC / 4 Ref Frames
    Format settings, CABAC      : Yes
    Format settings, Reference  : 4 frames
    Codec ID                    : V_MPEG4/ISO/AVC
    Duration                    : 1 h 34 min
    Bit rate                    : 4 629 kb/s
    Width                       : 1 920 pixels
    Height                      : 958 pixels
    Display aspect ratio        : 2.004
    Frame rate mode             : Constant
    Frame rate                  : 23.976 (23976/1000) FPS
    Color space                 : YUV
    Chroma subsampling          : 4:2:0
    Bit depth                   : 8 bits
    Scan type                   : Progressive
    Bits/(Pixel*Frame)          : 0.105
    Stream size                 : 3.04 GiB (82%)
    Language                    : English
    Default                     : Yes
    Forced                      : No
    Color range                 : Limited
    Color primaries             : BT.709
    Transfer characteristics    : BT.709
    Matrix coefficients         : BT.709

    Audio #1
    ID                          : 2
    Format                      : AC-3
    Format/Info                 : Audio Coding 3
    Commercial name             : Dolby Digital
    Codec ID                    : A_AC3
    Duration                    : 1 h 34 min
    Bit rate mode               : Constant
    Bit rate                    : 640 kb/s
    Channel(s)                  : 6 channels
    Channel layout              : L R C LFE Ls Rs
    Sampling rate               : 48.0 kHz
    Frame rate                  : 31.250 FPS (1536 SPF)
    Compression mode            : Lossy
    Delay relative to video     : -42 ms
    Stream size                 : 431 MiB (11%)
    Language                    : Spanish
    Service kind                : Complete Main
    Default                     : Yes
    Forced                      : No

    Audio #2
    ID                          : 3
    Format                      : AC-3
    Format/Info                 : Audio Coding 3
    Commercial name             : Dolby Digital
    Codec ID                    : A_AC3
    Duration                    : 1 h 34 min
    Bit rate mode               : Constant
    Bit rate                    : 384 kb/s
    Channel(s)                  : 6 channels
    Channel layout              : L R C LFE Ls Rs
    Sampling rate               : 48.0 kHz
    Frame rate                  : 31.250 FPS (1536 SPF)
    Compression mode            : Lossy
    Delay relative to video     : -42 ms
    Stream size                 : 258 MiB (7%)
    Language                    : English
    Service kind                : Complete Main
    Default                     : No
    Forced                      : No

    Text #1
    ID                          : 4
    Format                      : UTF-8
    Codec ID                    : S_TEXT/UTF8
    Codec ID/Info               : UTF-8 Plain Text
    Duration                    : 1 h 29 min
    Bit rate                    : 0 b/s
    Count of elements           : 5
    Stream size                 : 127 Bytes (0%)
    Language                    : Spanish
    Default                     : Yes
    Forced                      : No

    Text #2
    ID                          : 5
    Format                      : UTF-8
    Codec ID                    : S_TEXT/UTF8
    Codec ID/Info               : UTF-8 Plain Text
    Duration                    : 1 h 29 min
    Bit rate                    : 32 b/s
    Count of elements           : 883
    Stream size                 : 21.1 KiB (0%)
    Language                    : Spanish
    Default                     : No
    Forced                      : No

    Menu
    00:00:00.000                : en:Chapter 1
    00:10:06.731                : en:Chapter 2
    00:17:04.815                : en:Chapter 3
    00:26:09.734                : en:Chapter 4
    00:36:45.411                : en:Chapter 5
    00:44:52.189                : en:Chapter 6
    00:55:33.079                : en:Chapter 7
    01:03:48.491                : en:Chapter 8
    01:12:47.363                : en:Chapter 9
    01:19:14.875                : en:Chapter 10
    01:30:11.656                : en:Chapter 11

  • Peso: 3.72 GiB

Sinopsis

Un grupo de amigos de la universidad se reúnen para emprender un viaje de senderismo por los montes de Suecia, con la finalidad de rendir homenaje a uno de ellos, muerto de forma violenta. Cuando se internan en el bosque, una presencia amenazante empieza a acosarles.

Ficha técnica

Video trailer de la película

Enlaces de descarga

Rip de Bluray

Descargar The Ritual (2017) [NF] WEB-DL 1080p Latino – CMHDD




Aportes de DPeliculasHDmega la pass es:dpeliculashdmega.org Aportes de CinemaniaHD la pass es:cinemaniahdd.com
Guardado en : Suspenso , Terror

Películas relacionadas

  • La Máquina infernal (2022) WEB-DL 1080p Latino

    La Máquina infernal (2022) WEB-DL 1080p Latino

    2022
    La Máquina infernal (2022) WEB-DL 1080p Latino

    1h 47m 2022

    Descargar La Máquina infernal (2022) WEB-DL 1080p Latino. Un fan obsesivo saca de su escondite al solitario...

    Director: Andrew Hunt

    Género: Suspenso

    Actores: Rocco Salata

  • Borrego: Sal Del Camino (2022) HD 1080p Latino

    Borrego: Sal Del Camino (2022) HD 1080p Latino

    2022
    Borrego: Sal Del Camino (2022) HD 1080p Latino

    1h 42m 2022

    Descargar Borrego: Sal Del Camino (2022) HD 1080p Latino. Una joven botánica se traslada a un pequeño...

    Director: Jesse Harris

    Género: Crimen

    Actores: Olivia Trujillo

  • Borrego: Sal Del Camino (2022) REMUX 1080p Latino

    Borrego: Sal Del Camino (2022) REMUX 1080p Latino

    2022
    Borrego: Sal Del Camino (2022) REMUX 1080p Latino

    1h 42m 2022

    Descargar Borrego: Sal Del Camino (2022) REMUX 1080p Latino. Una joven botánica se traslada a un pequeño...

    Director: Jesse Harris

    Género: Crimen

    Actores: Olivia Trujillo

  • Tren Bala (2022) WEB-DL 4K UHD HDR Latino

    Tren Bala (2022) WEB-DL 4K UHD HDR Latino

    2022
    Tren Bala (2022) WEB-DL 4K UHD HDR Latino

    2h 7m 2022

    Descargar Tren Bala (2022) WEB-DL 4K UHD HDR Latino. El desafortunado asesino "Catarina" está decidido...

    Director: Paul Barry

    Género: 4K HDR

    Actores: Zooey Miyoshi

descargar The Ritual (2017) [NF] WEB-DL 1080p Latino – CMHDD WEBDL 1080p gratis, The Ritual (2017) [NF] WEB-DL 1080p Latino – CMHDD WEBDL mega 1 link, The Ritual (2017) [NF] WEB-DL 1080p Latino – CMHDD WEBDL pelicula completa, descargar The Ritual (2017) [NF] WEB-DL 1080p Latino – CMHDD WEBDL gratis en mega.

The Ritual (2017) [NF] WEB-DL 1080p Latino – CMHDD pelicula full hd, The Ritual (2017) [NF] WEB-DL 1080p Latino – CMHDD mega latino, The Ritual (2017) [NF] WEB-DL 1080p Latino – CMHDD 4k latino, The Ritual (2017) [NF] WEB-DL 1080p Latino – CMHDD pelicula completa, The Ritual (2017) [NF] WEB-DL 1080p Latino – CMHDD descargar gratis, descargar The Ritual (2017) [NF] WEB-DL 1080p Latino – CMHDD pelicula latino, The Ritual (2017) [NF] WEB-DL 1080p Latino – CMHDD 1 link mega, The Ritual (2017) [NF] WEB-DL 1080p Latino – CMHDD 1 link google drive, The Ritual (2017) [NF] WEB-DL 1080p Latino – CMHDD hd 1080p latino.
Comentarios 0