×

¿Problemas para descargar con Mozilla, EDGE? Deshabilita la opción "Abrir vinculos en una pestaña nueva" tal como lo muestra ésta imagen.

The Right One (2021) PLACEBO Full HD 1080p Latino

218 vistas

Información de The Right One (2021) PLACEBO Full HD 1080p Latino

Datos de la película

  • Calidad: Full 1080p
  • Audio: Español Latino AC3 5.1 BLURAY - Ingles DTS 5.1 BLURAY
  • Subtitulos: Español Latino PGS - Ingles PGS
  • Resolución: 1920x1080p
  • Formato: MKV
  • Codec: H.264
  • Encoder: Melkor
  • Mediainfo: Clic para Mostrar Datos Ver
  • The Right One (2021) PLACEBO Full HD 1080p Latino.mkv
    Format                      : Matroska
    Format version              : Version 4
    File size                   : 4.89 GiB
    Duration                    : 1 h 35 min
    Overall bit rate            : 7 357 kb/s
    Movie name                  : The Right One (2021) CinemaniaHDD.Net
    Encoded date                : UTC 2021-02-06 06:07:08
    Writing application         : mkvmerge v51.0.0 ('I Wish') 64-bit
    Writing library             : libebml v1.4.0 + libmatroska v1.6.2
    Attachments                 : CINEMANIAHD.png

    Video
    ID                          : 1
    Format                      : AVC
    Format/Info                 : Advanced Video Codec
    Format profile              : High@L4.1
    Format settings             : CABAC / 4 Ref Frames
    Format settings, CABAC      : Yes
    Format settings, Reference  : 4 frames
    Codec ID                    : V_MPEG4/ISO/AVC
    Duration                    : 1 h 35 min
    Bit rate                    : 5 352 kb/s
    Width                       : 1 920 pixels
    Height                      : 1 080 pixels
    Display aspect ratio        : 16:9
    Frame rate mode             : Constant
    Frame rate                  : 23.976 (24000/1001) FPS
    Color space                 : YUV
    Chroma subsampling          : 4:2:0
    Bit depth                   : 8 bits
    Scan type                   : Progressive
    Bits/(Pixel*Frame)          : 0.108
    Stream size                 : 3.56 GiB (73%)
    Title                       : Full HD1080p [CinemaniaHDD]
    Writing library             : x264 core 157 r2935 545de2f
    Encoding settings           : cabac=1 / ref=4 / deblock=1:0:0 / analyse=0x3:0x133 / me=tesa / subme=11 / psy=1 / psy_rd=1.00:0.00 / mixed_ref=1 / me_range=24 / chroma_me=1 / trellis=2 / 8x8dct=1 / cqm=0 / deadzone=21,11 / fast_pskip=0 / chroma_qp_offset=-2 / threads=24 / lookahead_threads=6 / sliced_threads=0 / nr=0 / decimate=1 / interlaced=0 / bluray_compat=0 / constrained_intra=0 / bframes=16 / b_pyramid=2 / b_adapt=2 / b_bias=0 / direct=3 / weightb=1 / open_gop=0 / weightp=2 / keyint=240 / keyint_min=24 / scenecut=40 / intra_refresh=0 / rc_lookahead=60 / rc=crf / mbtree=1 / crf=19.0 / qcomp=0.60 / qpmin=0 / qpmax=69 / qpstep=4 / vbv_maxrate=62500 / vbv_bufsize=78125 / crf_max=0.0 / nal_hrd=none / filler=0 / ip_ratio=1.40 / aq=1:1.00
    Default                     : Yes
    Forced                      : No
    Color range                 : Limited
    Color primaries             : BT.709
    Transfer characteristics    : BT.709
    Matrix coefficients         : BT.709

    Audio #1
    ID                          : 2
    ID in the original source m : 4353 (0x1101)
    Format                      : AC-3
    Format/Info                 : Audio Coding 3
    Commercial name             : Dolby Digital
    Codec ID                    : A_AC3
    Duration                    : 1 h 35 min
    Bit rate mode               : Constant
    Bit rate                    : 448 kb/s
    Channel(s)                  : 6 channels
    Channel layout              : L R C LFE Ls Rs
    Sampling rate               : 48.0 kHz
    Frame rate                  : 31.250 FPS (1536 SPF)
    Compression mode            : Lossy
    Stream size                 : 305 MiB (6%)
    Title                       : Español Latino [CinemaniaHDD]
    Language                    : Spanish
    Service kind                : Complete Main
    Default                     : Yes
    Forced                      : No
    Original source medium      : Blu-ray

    Audio #2
    ID                          : 3
    Format                      : DTS
    Format/Info                 : Digital Theater Systems
    Codec ID                    : A_DTS
    Duration                    : 1 h 35 min
    Bit rate mode               : Constant
    Bit rate                    : 1 509 kb/s
    Channel(s)                  : 6 channels
    Channel layout              : C L R Ls Rs LFE
    Sampling rate               : 48.0 kHz
    Frame rate                  : 93.750 FPS (512 SPF)
    Bit depth                   : 24 bits
    Compression mode            : Lossy
    Stream size                 : 1.00 GiB (21%)
    Title                       : Ingles [CinemaniaHDD]
    Language                    : English
    Default                     : No
    Forced                      : No

    Text #1
    ID                          : 4
    ID in the original source m : 4609 (0x1201)
    Format                      : PGS
    Muxing mode                 : zlib
    Codec ID                    : S_HDMV/PGS
    Codec ID/Info               : Picture based subtitle format used on BDs/HD-DVDs
    Duration                    : 53 min 1 s
    Bit rate                    : 787 b/s
    Count of elements           : 26
    Stream size                 : 306 KiB (0%)
    Title                       : Forzados-PGS [CinemaniaHDD]
    Language                    : Spanish
    Default                     : Yes
    Forced                      : No
    Original source medium      : Blu-ray

    Text #2
    ID                          : 5
    ID in the original source m : 4609 (0x1201)
    Format                      : PGS
    Muxing mode                 : zlib
    Codec ID                    : S_HDMV/PGS
    Codec ID/Info               : Picture based subtitle format used on BDs/HD-DVDs
    Duration                    : 1 h 32 min
    Bit rate                    : 39.7 kb/s
    Count of elements           : 2628
    Stream size                 : 26.4 MiB (1%)
    Title                       : Español-PGS [CinemaniaHDD]
    Language                    : Spanish
    Default                     : No
    Forced                      : No
    Original source medium      : Blu-ray

    Text #3
    ID                          : 6
    ID in the original source m : 4608 (0x1200)
    Format                      : PGS
    Muxing mode                 : zlib
    Codec ID                    : S_HDMV/PGS
    Codec ID/Info               : Picture based subtitle format used on BDs/HD-DVDs
    Duration                    : 1 h 29 min
    Bit rate                    : 48.9 kb/s
    Count of elements           : 3041
    Stream size                 : 31.2 MiB (1%)
    Title                       : Ingles-PGS [CinemaniaHDD]
    Language                    : English
    Default                     : No
    Forced                      : No
    Original source medium      : Blu-ray

    Text #4
    ID                          : 7
    Format                      : UTF-8
    Codec ID                    : S_TEXT/UTF8
    Codec ID/Info               : UTF-8 Plain Text
    Duration                    : 53 min 1 s
    Bit rate                    : 1 b/s
    Count of elements           : 13
    Stream size                 : 468 Bytes (0%)
    Title                       : Forzados-SRT [CinemaniaHDD]
    Language                    : Spanish
    Default                     : No
    Forced                      : No

    Text #5
    ID                          : 8
    Format                      : UTF-8
    Codec ID                    : S_TEXT/UTF8
    Codec ID/Info               : UTF-8 Plain Text
    Duration                    : 1 h 27 min
    Bit rate                    : 69 b/s
    Count of elements           : 1313
    Stream size                 : 45.1 KiB (0%)
    Title                       : Español-SRT [CinemaniaHDD]
    Language                    : Spanish
    Default                     : No
    Forced                      : No

    Menu
    00:00:00.000                : en:Chapter 01
    00:05:26.117                : en:Chapter 02
    00:10:44.143                : en:Chapter 03
    00:16:05.422                : en:Chapter 04
    00:24:20.709                : en:Chapter 05
    00:29:51.039                : en:Chapter 06
    00:33:55.199                : en:Chapter 07
    00:41:44.627                : en:Chapter 08
    00:45:15.796                : en:Chapter 09
    00:50:07.170                : en:Chapter 10
    00:54:21.508                : en:Chapter 11
    00:59:03.873                : en:Chapter 12
    01:06:02.124                : en:Chapter 13
    01:11:11.016                : en:Chapter 14
    01:15:55.884                : en:Chapter 15
    01:23:02.894                : en:Chapter 16

  • Peso: 4.89 GiB

Sinopsis

Descargar The Right One (2021) PLACEBO Full HD 1080p Latino. Sara, una novelista que lucha contra el bloqueo del escritor, necesita inspiración, y la encuentra cuando por casualidad conoce a Godfrey, un bicho raro que cambia constantemente de personalidad y alter egos para hacer frente a su pasado y evitar la realidad. Justo cuando Godfrey comienza a abrirse con Sara, descubre que ella lo ha estado usando como inspiración para su próxima novela, y desaparece de su vida. ¿Sara acaba de perder al hombre de sus sueños o podrá encontrarlo y arreglar las cosas?

Ficha técnica

Video trailer de la película

Enlaces de descarga

Rip de Bluray

Descargar The Right One (2021) PLACEBO Full HD 1080p Latino




Aportes de DPeliculasHDmega la pass es:dpeliculashdmega.org Aportes de CinemaniaHD la pass es:cinemaniahdd.com

Películas relacionadas

descargar The Right One (2021) PLACEBO Full HD 1080p Latino Full 1080p 1080p gratis, The Right One (2021) PLACEBO Full HD 1080p Latino Full 1080p mega 1 link, The Right One (2021) PLACEBO Full HD 1080p Latino Full 1080p pelicula completa, descargar The Right One (2021) PLACEBO Full HD 1080p Latino Full 1080p gratis en mega.

The Right One (2021) PLACEBO Full HD 1080p Latino pelicula full hd, The Right One (2021) PLACEBO Full HD 1080p Latino mega latino, The Right One (2021) PLACEBO Full HD 1080p Latino 4k latino, The Right One (2021) PLACEBO Full HD 1080p Latino pelicula completa, The Right One (2021) PLACEBO Full HD 1080p Latino descargar gratis, descargar The Right One (2021) PLACEBO Full HD 1080p Latino pelicula latino, The Right One (2021) PLACEBO Full HD 1080p Latino 1 link mega, The Right One (2021) PLACEBO Full HD 1080p Latino 1 link google drive, The Right One (2021) PLACEBO Full HD 1080p Latino hd 1080p latino.
Comentarios 0