×

¿Problemas para descargar con Mozilla, EDGE? Deshabilita la opción "Abrir vinculos en una pestaña nueva" tal como lo muestra ésta imagen.

The Rig (2023) Primera Temporada AMZN WEB-DL 1080p Latino

35 vistas

Información de The Rig (2023) Primera Temporada AMZN WEB-DL 1080p Latino

Datos de la película

  • Calidad: 1080p
  • Audio: Español Latino AC3 5.1 WEB-DL - Ingles AC3 5.1 WEB-DL
  • Subtitulos: Español Latino SRT- FORZADOS SRT
  • Resolución: 1920x1080
  • Formato: MKV
  • Codec: H.264
  • Encoder: cinemaniahdd
  • Mediainfo: Clic para Mostrar Datos Ver
  • The Rig T01E01 AMZN WEB-DL 1080p Latino [CNMNHDD].mkv
    Format                      : Matroska
    Format version              : Version 4
    File size                   : 3.68 GiB
    Duration                    : 49 min 50 s
    Overall bit rate            : 10.6 Mb/s
    Movie name                  : The Rig S01E01 - Episode 1 [1080p] - CinemaniaHDD.Net
    Encoded date                : UTC 2023-01-06 02:43:16
    Writing application         : mkvmerge v56.1.0 ('My Friend') 64-bit
    Writing library             : libebml v1.4.2 + libmatroska v1.6.4

    Video
    ID                          : 1
    Format                      : AVC
    Format/Info                 : Advanced Video Codec
    Format profile              : High@L4
    Format settings             : CABAC / 4 Ref Frames
    Format settings, CABAC      : Yes
    Format settings, Reference  : 4 frames
    Codec ID                    : V_MPEG4/ISO/AVC
    Duration                    : 49 min 50 s
    Bit rate mode               : Constant
    Bit rate                    : 8 635 kb/s
    Nominal bit rate            : 10 000 kb/s
    Width                       : 1 920 pixels
    Height                      : 960 pixels
    Display aspect ratio        : 2.000
    Frame rate mode             : Constant
    Frame rate                  : 25.000 FPS
    Color space                 : YUV
    Chroma subsampling          : 4:2:0
    Bit depth                   : 8 bits
    Scan type                   : Progressive
    Bits/(Pixel*Frame)          : 0.187
    Stream size                 : 3.01 GiB (82%)
    Title                       : CinemaniaHDD
    Default                     : Yes
    Forced                      : No
    Color range                 : Limited
    Color primaries             : BT.709
    Transfer characteristics    : BT.709
    Matrix coefficients         : BT.709

    Audio #1
    ID                          : 2
    Format                      : AC-3
    Format/Info                 : Audio Coding 3
    Commercial name             : Dolby Digital
    Codec ID                    : A_AC3
    Duration                    : 49 min 50 s
    Bit rate mode               : Constant
    Bit rate                    : 640 kb/s
    Channel(s)                  : 6 channels
    Channel layout              : L R C LFE Ls Rs
    Sampling rate               : 48.0 kHz
    Frame rate                  : 31.250 FPS (1536 SPF)
    Compression mode            : Lossy
    Stream size                 : 228 MiB (6%)
    Title                       : Español latino [CinemaniaHDD]
    Language                    : Spanish
    Service kind                : Complete Main
    Default                     : Yes
    Forced                      : No

    Audio #2
    ID                          : 3
    Format                      : E-AC-3
    Format/Info                 : Enhanced AC-3
    Commercial name             : Dolby Digital Plus
    Codec ID                    : A_EAC3
    Duration                    : 49 min 50 s
    Bit rate mode               : Constant
    Bit rate                    : 640 kb/s
    Channel(s)                  : 6 channels
    Channel layout              : L R C LFE Ls Rs
    Sampling rate               : 48.0 kHz
    Frame rate                  : 31.250 FPS (1536 SPF)
    Compression mode            : Lossy
    Stream size                 : 228 MiB (6%)
    Title                       : Español latino / E-AC3 [CinemaniaHDD]
    Language                    : Spanish
    Service kind                : Complete Main
    Default                     : No
    Forced                      : No

    Audio #3
    ID                          : 4
    Format                      : E-AC-3
    Format/Info                 : Enhanced AC-3
    Commercial name             : Dolby Digital Plus
    Codec ID                    : A_EAC3
    Duration                    : 49 min 50 s
    Bit rate mode               : Constant
    Bit rate                    : 640 kb/s
    Channel(s)                  : 6 channels
    Channel layout              : L R C LFE Ls Rs
    Sampling rate               : 48.0 kHz
    Frame rate                  : 31.250 FPS (1536 SPF)
    Compression mode            : Lossy
    Stream size                 : 228 MiB (6%)
    Title                       : Inglés [CinemaniaHDD]
    Language                    : English
    Service kind                : Complete Main
    Default                     : No
    Forced                      : No

    Text #1
    ID                          : 5
    Format                      : UTF-8
    Codec ID                    : S_TEXT/UTF8
    Codec ID/Info               : UTF-8 Plain Text
    Duration                    : 38 min 45 s
    Bit rate                    : 0 b/s
    Count of elements           : 10
    Stream size                 : 262 Bytes (0%)
    Title                       : Forzados [CinemaniaHDD]
    Language                    : Spanish
    Default                     : Yes
    Forced                      : Yes

    Text #2
    ID                          : 6
    Format                      : UTF-8
    Codec ID                    : S_TEXT/UTF8
    Codec ID/Info               : UTF-8 Plain Text
    Duration                    : 47 min 48 s
    Bit rate                    : 56 b/s
    Count of elements           : 544
    Stream size                 : 19.8 KiB (0%)
    Title                       : Español latino [CinemaniaHDD]
    Language                    : Spanish
    Default                     : No
    Forced                      : No

    Text #3
    ID                          : 7
    Format                      : UTF-8
    Codec ID                    : S_TEXT/UTF8
    Codec ID/Info               : UTF-8 Plain Text
    Duration                    : 47 min 48 s
    Bit rate                    : 75 b/s
    Count of elements           : 775
    Stream size                 : 26.5 KiB (0%)
    Title                       : Inglés [CinemaniaHDD]
    Language                    : English
    Default                     : No
    Forced                      : No

     

  • Peso: 3.68 GiB Aprox ---- 22 GiB in 6 Chapters.

Sinopsis

Cuando la tripulación del Kinloch Bravo se ve aislada de toda comunicación con el continente escocés por una niebla misteriosa, deben luchar para encontrar el camino a casa mientras manejan las presiones ambientales, la paranoia y las tensiones crecientes. Pero a medida que la amenaza revela ser algo más allá de su imaginación, la tripulación dividida debe formar una alianza para poder sobrevivir.

Ficha técnica

Video trailer de la película

Enlaces de descarga

Rip de Bluray

Descargar The Rig (2023) Primera Temporada AMZN WEB-DL 1080p Latino




Aportes de DPeliculasHDmega la pass es:dpeliculashdmega.org Aportes de CinemaniaHD la pass es:cinemaniahdd.com
Guardado en : Drama , Misterio , Series

Películas relacionadas

descargar The Rig (2023) Primera Temporada AMZN WEB-DL 1080p Latino 1080p 1080p gratis, The Rig (2023) Primera Temporada AMZN WEB-DL 1080p Latino 1080p mega 1 link, The Rig (2023) Primera Temporada AMZN WEB-DL 1080p Latino 1080p serie completa, descargar The Rig (2023) Primera Temporada AMZN WEB-DL 1080p Latino 1080p gratis en mega.

The Rig (2023) Primera Temporada AMZN WEB-DL 1080p Latino pelicula full hd, The Rig (2023) Primera Temporada AMZN WEB-DL 1080p Latino mega latino, The Rig (2023) Primera Temporada AMZN WEB-DL 1080p Latino 4k latino, The Rig (2023) Primera Temporada AMZN WEB-DL 1080p Latino pelicula completa, The Rig (2023) Primera Temporada AMZN WEB-DL 1080p Latino descargar gratis, descargar The Rig (2023) Primera Temporada AMZN WEB-DL 1080p Latino pelicula latino, The Rig (2023) Primera Temporada AMZN WEB-DL 1080p Latino 1 link mega, The Rig (2023) Primera Temporada AMZN WEB-DL 1080p Latino 1 link google drive, The Rig (2023) Primera Temporada AMZN WEB-DL 1080p Latino hd 1080p latino.
Comentarios 0