×

¿Problemas para descargar con Mozilla, EDGE? Deshabilita la opción "Abrir vinculos en una pestaña nueva" tal como lo muestra ésta imagen.

El Ritmo de la Venganza (2020) Web-DL 1080p Latino

1.899 vistas

Información de El Ritmo de la Venganza (2020) Web-DL 1080p Latino

Datos de la película

  • Calidad: WEBDL
  • Audio: Español Latino AC3 5.1 DVD - Ingles AC3 5.1 iTunes
  • Subtitulos: Español Latino SRT - Ingles SRT
  • Resolución: 1920x1080p
  • Formato: MKV
  • Codec: H.264
  • Encoder: CinemaniaHD
  • Mediainfo: Clic para Mostrar Datos Ver
  • El Ritmo de la Venganza (2020) Web-DL 1080p Latino-CMHDD.mkv
    Format                      : Matroska
    Format version              : Version 4
    File size                   : 4.21 GiB
    Duration                    : 1 h 49 min
    Overall bit rate            : 5 499 kb/s
    Movie name                  : The Rhythm Section (2020) CinemaniaHDD.Net
    Encoded date                : UTC 2020-04-08 03:40:10
    Writing application         : mkvmerge v42.0.0 ('Overtime') 64-bit
    Writing library             : libebml v1.3.10 + libmatroska v1.5.2
    Attachments                 : CINEMANIAHD.png

    Video
    ID                          : 1
    Format                      : AVC
    Format/Info                 : Advanced Video Codec
    Format profile              : High@L4
    Format settings             : CABAC / 2 Ref Frames
    Format settings, CABAC      : Yes
    Format settings, ReFrames   : 2 frames
    Codec ID                    : V_MPEG4/ISO/AVC
    Duration                    : 1 h 49 min
    Bit rate                    : 4 665 kb/s
    Width                       : 1 920 pixels
    Height                      : 1 080 pixels
    Display aspect ratio        : 16:9
    Frame rate mode             : Constant
    Frame rate                  : 23.976 (24000/1001) FPS
    Color space                 : YUV
    Chroma subsampling          : 4:2:0
    Bit depth                   : 8 bits
    Scan type                   : Progressive
    Bits/(Pixel*Frame)          : 0.094
    Stream size                 : 3.57 GiB (85%)
    Title                       : Web HD1080p [CinemaniaHDD]
    Writing library             : x264 core 155 r2901 7d0ff22
    Default                     : Yes
    Forced                      : No
    Color range                 : Limited
    Color primaries             : BT.709
    Transfer characteristics    : BT.709
    Matrix coefficients         : BT.709

    Audio #1
    ID                          : 2
    Format                      : AC-3
    Format/Info                 : Audio Coding 3
    Commercial name             : Dolby Digital
    Codec ID                    : A_AC3
    Duration                    : 1 h 49 min
    Bit rate mode               : Constant
    Bit rate                    : 448 kb/s
    Channel(s)                  : 6 channels
    Channel layout              : L R C LFE Ls Rs
    Sampling rate               : 48.0 kHz
    Frame rate                  : 31.250 FPS (1536 SPF)
    Bit depth                   : 16 bits
    Compression mode            : Lossy
    Stream size                 : 351 MiB (8%)
    Title                       : Español Latino [CinemaniaHDD]
    Language                    : Spanish
    Service kind                : Complete Main
    Default                     : Yes
    Forced                      : No

    Audio #2
    ID                          : 3
    Format                      : AC-3
    Format/Info                 : Audio Coding 3
    Commercial name             : Dolby Digital
    Codec ID                    : A_AC3
    Duration                    : 1 h 49 min
    Bit rate mode               : Constant
    Bit rate                    : 384 kb/s
    Channel(s)                  : 6 channels
    Channel layout              : L R C LFE Ls Rs
    Sampling rate               : 48.0 kHz
    Frame rate                  : 31.250 FPS (1536 SPF)
    Bit depth                   : 16 bits
    Compression mode            : Lossy
    Stream size                 : 301 MiB (7%)
    Title                       : Ingles [CinemaniaHDD]
    Language                    : English
    Service kind                : Complete Main
    Default                     : No
    Forced                      : No

    Text #1
    ID                          : 4
    Format                      : UTF-8
    Codec ID                    : S_TEXT/UTF8
    Codec ID/Info               : UTF-8 Plain Text
    Duration                    : 1 h 41 min
    Bit rate                    : 0 b/s
    Count of elements           : 14
    Stream size                 : 381 Bytes (0%)
    Title                       : Forzados-SRT [CinemaniaHDD]
    Language                    : Spanish
    Default                     : Yes
    Forced                      : No

    Text #2
    ID                          : 5
    Format                      : UTF-8
    Codec ID                    : S_TEXT/UTF8
    Codec ID/Info               : UTF-8 Plain Text
    Duration                    : 1 h 42 min
    Bit rate                    : 31 b/s
    Count of elements           : 791
    Stream size                 : 23.5 KiB (0%)
    Title                       : Español-SRT [CinemaniaHDD]
    Language                    : Spanish
    Default                     : No
    Forced                      : No

    Text #3
    ID                          : 6
    Format                      : UTF-8
    Codec ID                    : S_TEXT/UTF8
    Codec ID/Info               : UTF-8 Plain Text
    Duration                    : 1 h 43 min
    Bit rate                    : 37 b/s
    Count of elements           : 1057
    Stream size                 : 28.2 KiB (0%)
    Title                       : Ingles-SRT [CinemaniaHDD]
    Language                    : Spanish
    Default                     : No
    Forced                      : No

  • Peso: 4.21 GiB

Sinopsis

Descargar El Ritmo de la Venganza (2020) Web-DL 1080p Latino. Stephanie Patrick ha perdido a toda su familia en un accidente de avión. Muy afectada por los sucesos comienza a investigar el siniestro y descubre que no fue algo accidental. Para llegar al fondo del asunto, Stephanie decide adoptar la identidad de un asesino y así encontrar a los causantes de su desgracia.

Ficha técnica

  • Titulo original: The Rhythm Section
  • Fecha de lanzamiento: 31-01-2020 (United States of America)
  • Director: Reed Morano
  • Género: Acción, Suspenso

Video trailer de la película

Enlaces de descarga

Rip de Bluray

Descargar El Ritmo de la Venganza (2020) Web-DL 1080p Latino




Aportes de DPeliculasHDmega la pass es:dpeliculashdmega.org Aportes de CinemaniaHD la pass es:cinemaniahdd.com
Guardado en : Acción , Suspenso

Películas relacionadas

  • Jaula Mental (2022) HD 1080p Latino

    Jaula Mental (2022) HD 1080p Latino

    2022
    Jaula Mental (2022) HD 1080p Latino

    1h 47m 2022

    Descargar Jaula Mental (2022) HD 1080p Latino. Cuando un asesino que imita otros crímenes comienza a...

    Director: Mauro Borrelli

    Género: Crimen

    Actores: Victoria Fox

  • Jaula Mental (2022) PLACEBO Full HD 1080p Latino

    Jaula Mental (2022) PLACEBO Full HD 1080p Latino

    2022
    Jaula Mental (2022) PLACEBO Full HD 1080p Latino

    1h 47m 2022

    Descargar Jaula Mental (2022) PLACEBO Full HD 1080p Latino. Cuando un asesino que imita otros crímenes...

    Director: Mauro Borrelli

    Género: Crimen

    Actores: Victoria Fox

  • Jaula Mental (2022) REMUX 1080p Latino

    Jaula Mental (2022) REMUX 1080p Latino

    2022
    Jaula Mental (2022) REMUX 1080p Latino

    1h 47m 2022

    Descargar Jaula Mental (2022) REMUX 1080p Latino. Cuando un asesino que imita otros crímenes comienza...

    Director: Mauro Borrelli

    Género: Crimen

    Actores: Victoria Fox

  • Transfusion (2023) HD 1080p Latino

    Transfusion (2023) HD 1080p Latino

    2023
    Transfusion (2023) HD 1080p Latino

    1h 45m 2023

    Descargar Transfusion (2023) HD 1080p Latino. Un antiguo agente de las Fuerzas Especiales se ve empujado...

    Director: Matt Nable

    Género: Crimen

    Actores: Trystan Go

  • Transfusion (2023) PLACEBO Full HD 1080p Latino

    Transfusion (2023) PLACEBO Full HD 1080p Latino

    2023
    Transfusion (2023) PLACEBO Full HD 1080p Latino

    1h 45m 2023

    Descargar Transfusion (2023) PLACEBO Full HD 1080p Latino. Un antiguo agente de las Fuerzas Especiales...

    Director: Matt Nable

    Género: Crimen

    Actores: Trystan Go

descargar El Ritmo de la Venganza (2020) Web-DL 1080p Latino WEBDL 1080p gratis, El Ritmo de la Venganza (2020) Web-DL 1080p Latino WEBDL mega 1 link, El Ritmo de la Venganza (2020) Web-DL 1080p Latino WEBDL pelicula completa, descargar El Ritmo de la Venganza (2020) Web-DL 1080p Latino WEBDL gratis en mega.

El Ritmo de la Venganza (2020) Web-DL 1080p Latino pelicula full hd, El Ritmo de la Venganza (2020) Web-DL 1080p Latino mega latino, El Ritmo de la Venganza (2020) Web-DL 1080p Latino 4k latino, El Ritmo de la Venganza (2020) Web-DL 1080p Latino pelicula completa, El Ritmo de la Venganza (2020) Web-DL 1080p Latino descargar gratis, descargar El Ritmo de la Venganza (2020) Web-DL 1080p Latino pelicula latino, El Ritmo de la Venganza (2020) Web-DL 1080p Latino 1 link mega, El Ritmo de la Venganza (2020) Web-DL 1080p Latino 1 link google drive, El Ritmo de la Venganza (2020) Web-DL 1080p Latino hd 1080p latino.
Comentarios 0