×

¿Problemas para descargar con Mozilla, EDGE? Deshabilita la opción "Abrir vinculos en una pestaña nueva" tal como lo muestra ésta imagen.

El Ritmo de la Venganza (2020) PLACEBO Full HD 1080p Latino

576 vistas

Información de El Ritmo de la Venganza (2020) PLACEBO Full HD 1080p Latino

Datos de la película

  • Calidad: Full 1080p
  • Audio: Español Latino AC3 5.1 BLURAY - Ingles DTS-HD Master 7.1 BLURAY
  • Subtitulos: Español Latino PGS - Ingles PGS
  • Resolución: 1920x1080p
  • Formato: MKV
  • Codec: H.264
  • Encoder: Melkor
  • Mediainfo: Clic para Mostrar Datos Ver
  • El Ritmo de la Venganza (2020) PLACEBO Full HD 1080p Latino.mkv
    Format                      : Matroska
    Format version              : Version 4
    File size                   : 5.85 GiB
    Duration                    : 1 h 49 min
    Overall bit rate mode       : Variable
    Overall bit rate            : 7 636 kb/s
    Movie name                  : The Rhythm Section (2020) CinemaniaHDD.Net
    Encoded date                : UTC 2020-04-25 04:16:05
    Writing application         : mkvmerge v42.0.0 ('Overtime') 64-bit
    Writing library             : libebml v1.3.10 + libmatroska v1.5.2
    Attachments                 : CINEMANIAHD.png

    Video
    ID                          : 1
    Format                      : AVC
    Format/Info                 : Advanced Video Codec
    Format profile              : High@L4.1
    Format settings             : CABAC / 4 Ref Frames
    Format settings, CABAC      : Yes
    Format settings, ReFrames   : 4 frames
    Codec ID                    : V_MPEG4/ISO/AVC
    Duration                    : 1 h 49 min
    Bit rate                    : 2 447 kb/s
    Width                       : 1 920 pixels
    Height                      : 1 080 pixels
    Display aspect ratio        : 16:9
    Frame rate mode             : Constant
    Frame rate                  : 23.976 (24000/1001) FPS
    Color space                 : YUV
    Chroma subsampling          : 4:2:0
    Bit depth                   : 8 bits
    Scan type                   : Progressive
    Bits/(Pixel*Frame)          : 0.049
    Stream size                 : 1.87 GiB (32%)
    Title                       : Full HD1080p [CinemaniaHDD]
    Writing library             : x264 core 157 r2935 545de2f
    Encoding settings           : cabac=1 / ref=4 / deblock=1:0:0 / analyse=0x3:0x133 / me=tesa / subme=11 / psy=1 / psy_rd=1.00:0.00 / mixed_ref=1 / me_range=24 / chroma_me=1 / trellis=2 / 8x8dct=1 / cqm=0 / deadzone=21,11 / fast_pskip=0 / chroma_qp_offset=-2 / threads=34 / lookahead_threads=8 / sliced_threads=0 / nr=0 / decimate=1 / interlaced=0 / bluray_compat=0 / constrained_intra=0 / bframes=16 / b_pyramid=2 / b_adapt=2 / b_bias=0 / direct=3 / weightb=1 / open_gop=0 / weightp=2 / keyint=240 / keyint_min=24 / scenecut=40 / intra_refresh=0 / rc_lookahead=60 / rc=crf / mbtree=1 / crf=20.0 / qcomp=0.60 / qpmin=0 / qpmax=69 / qpstep=4 / vbv_maxrate=62500 / vbv_bufsize=78125 / crf_max=0.0 / nal_hrd=none / filler=0 / ip_ratio=1.40 / aq=1:1.00
    Default                     : Yes
    Forced                      : Yes
    Color range                 : Limited
    Color primaries             : BT.709
    Transfer characteristics    : BT.709
    Matrix coefficients         : BT.709

    Audio #1
    ID                          : 2
    Format                      : AC-3
    Format/Info                 : Audio Coding 3
    Commercial name             : Dolby Digital
    Codec ID                    : A_AC3
    Duration                    : 1 h 49 min
    Bit rate mode               : Constant
    Bit rate                    : 640 kb/s
    Channel(s)                  : 6 channels
    Channel layout              : L R C LFE Ls Rs
    Sampling rate               : 48.0 kHz
    Frame rate                  : 31.250 FPS (1536 SPF)
    Bit depth                   : 16 bits
    Compression mode            : Lossy
    Stream size                 : 502 MiB (8%)
    Title                       : Español Latino [CinemaniaHDD]
    Language                    : Spanish
    Service kind                : Complete Main
    Default                     : Yes
    Forced                      : No

    Audio #2
    ID                          : 3
    Format                      : DTS XLL
    Format/Info                 : Digital Theater Systems
    Commercial name             : DTS-HD Master Audio
    Codec ID                    : A_DTS
    Duration                    : 1 h 49 min
    Bit rate mode               : Variable
    Bit rate                    : 4 533 kb/s
    Channel(s)                  : 8 channels
    Channel layout              : C L R LFE Lb Rb Lss Rss
    Sampling rate               : 48.0 kHz
    Frame rate                  : 93.750 FPS (512 SPF)
    Bit depth                   : 24 bits
    Compression mode            : Lossless
    Stream size                 : 3.47 GiB (59%)
    Title                       : Ingles [CinemaniaHDD]
    Language                    : English
    Default                     : No
    Forced                      : No

    Text #1
    ID                          : 4
    Format                      : PGS
    Muxing mode                 : zlib
    Codec ID                    : S_HDMV/PGS
    Codec ID/Info               : Picture based subtitle format used on BDs/HD-DVDs
    Duration                    : 1 h 48 min
    Bit rate                    : 834 b/s
    Count of elements           : 66
    Stream size                 : 662 KiB (0%)
    Title                       : Forzados-PGS [CinemaniaHDD]
    Language                    : Spanish
    Default                     : Yes
    Forced                      : No

    Text #2
    ID                          : 5
    Format                      : PGS
    Muxing mode                 : zlib
    Codec ID                    : S_HDMV/PGS
    Codec ID/Info               : Picture based subtitle format used on BDs/HD-DVDs
    Duration                    : 1 h 48 min
    Bit rate                    : 18.6 kb/s
    Count of elements           : 1590
    Stream size                 : 14.5 MiB (0%)
    Title                       : Español-PGS [CinemaniaHDD]
    Language                    : Spanish
    Default                     : No
    Forced                      : No

    Text #3
    ID                          : 6
    Format                      : PGS
    Muxing mode                 : zlib
    Codec ID                    : S_HDMV/PGS
    Codec ID/Info               : Picture based subtitle format used on BDs/HD-DVDs
    Duration                    : 1 h 42 min
    Bit rate                    : 18.2 kb/s
    Count of elements           : 1522
    Stream size                 : 13.4 MiB (0%)
    Title                       : Ingles-PGS [CinemaniaHDD]
    Language                    : English
    Default                     : No
    Forced                      : No

    Text #4
    ID                          : 7
    Format                      : UTF-8
    Codec ID                    : S_TEXT/UTF8
    Codec ID/Info               : UTF-8 Plain Text
    Duration                    : 1 h 48 min
    Bit rate                    : 1 b/s
    Count of elements           : 33
    Stream size                 : 958 Bytes (0%)
    Title                       : Forzados-SRT [CinemaniaHDD]
    Language                    : Spanish
    Default                     : No
    Forced                      : No

    Text #5
    ID                          : 8
    Format                      : UTF-8
    Codec ID                    : S_TEXT/UTF8
    Codec ID/Info               : UTF-8 Plain Text
    Duration                    : 1 h 42 min
    Bit rate                    : 31 b/s
    Count of elements           : 791
    Stream size                 : 23.5 KiB (0%)
    Title                       : Español-SRT [CinemaniaHDD]
    Language                    : Spanish
    Default                     : No
    Forced                      : No

    Menu
    00:00:00.000                : en:Chapter 01
    00:07:35.705                : en:Chapter 02
    00:14:47.928                : en:Chapter 03
    00:21:54.021                : en:Chapter 04
    00:27:57.759                : en:Chapter 05
    00:34:52.423                : en:Chapter 06
    00:41:21.979                : en:Chapter 07
    00:51:05.687                : en:Chapter 08
    01:00:17.447                : en:Chapter 09
    01:10:20.591                : en:Chapter 10
    01:19:52.245                : en:Chapter 11
    01:28:41.858                : en:Chapter 12
    01:37:57.913                : en:Chapter 13
    01:44:26.301                : en:Chapter 14

  • Peso: 5.85 GiB

Sinopsis

Descargar El Ritmo de la Venganza (2020) PLACEBO Full HD 1080p Latino. Stephanie Patrick ha perdido a toda su familia en un accidente de avión. Muy afectada por los sucesos comienza a investigar el siniestro y descubre que no fue algo accidental. Para llegar al fondo del asunto, Stephanie decide adoptar la identidad de un asesino y así encontrar a los causantes de su desgracia.

Ficha técnica

Video trailer de la película

Enlaces de descarga

Rip de Bluray

Descargar El Ritmo de la Venganza (2020) PLACEBO Full HD 1080p Latino




Aportes de DPeliculasHDmega la pass es:dpeliculashdmega.org Aportes de CinemaniaHD la pass es:cinemaniahdd.com

Películas relacionadas

descargar El Ritmo de la Venganza (2020) PLACEBO Full HD 1080p Latino Full 1080p 1080p gratis, El Ritmo de la Venganza (2020) PLACEBO Full HD 1080p Latino Full 1080p mega 1 link, El Ritmo de la Venganza (2020) PLACEBO Full HD 1080p Latino Full 1080p pelicula completa, descargar El Ritmo de la Venganza (2020) PLACEBO Full HD 1080p Latino Full 1080p gratis en mega.

El Ritmo de la Venganza (2020) PLACEBO Full HD 1080p Latino pelicula full hd, El Ritmo de la Venganza (2020) PLACEBO Full HD 1080p Latino mega latino, El Ritmo de la Venganza (2020) PLACEBO Full HD 1080p Latino 4k latino, El Ritmo de la Venganza (2020) PLACEBO Full HD 1080p Latino pelicula completa, El Ritmo de la Venganza (2020) PLACEBO Full HD 1080p Latino descargar gratis, descargar El Ritmo de la Venganza (2020) PLACEBO Full HD 1080p Latino pelicula latino, El Ritmo de la Venganza (2020) PLACEBO Full HD 1080p Latino 1 link mega, El Ritmo de la Venganza (2020) PLACEBO Full HD 1080p Latino 1 link google drive, El Ritmo de la Venganza (2020) PLACEBO Full HD 1080p Latino hd 1080p latino.
Comentarios 0