×

¿Problemas para descargar con Mozilla, EDGE? Deshabilita la opción "Abrir vinculos en una pestaña nueva" tal como lo muestra ésta imagen.

El Regreso De Los Muertos Vivientes (1985) 35MM OPEN MATTE REMUX 1080p Latino

179 vistas

Información de El Regreso De Los Muertos Vivientes (1985) 35MM OPEN MATTE REMUX 1080p Latino

Datos de la película

  • Calidad: Full 1080p
  • Audio: Se especifica abajo de la Sinopsis
  • Subtitulos: Español Latino SRT - Ingles SRT
  • Resolución: 1920x1080p
  • Formato: MKV
  • Codec: H.264
  • Encoder: CinefiloCool
  • Mediainfo: Clic para Mostrar Datos Ver
  • The.Return.Of.The.Living.Dead.1985.35MM.OPEN.MATTE.REMUX.1080p.Latino-CC@CMHDD.mkv
    Format                      : Matroska
    Format version              : Version 4
    File size                   : 16.0 GiB
    Duration                    : 1 h 30 min
    Overall bit rate            : 25.4 Mb/s
    Movie name                  : The Return Of The Living Dead (1985) CinemaniaHDD.Net
    Encoded date                : UTC 2023-10-26 06:06:28
    Writing application         : mkvmerge v56.1.0 ('My Friend') 64-bit
    Writing library             : libebml v1.4.2 + libmatroska v1.6.4
    Attachments                 : CINEMANIAHD.png

    Video
    ID                          : 1
    ID in the original source m : 4113 (0x1011)
    Format                      : AVC
    Format/Info                 : Advanced Video Codec
    Format profile              : High@L4.1
    Format settings             : CABAC / 4 Ref Frames
    Format settings, CABAC      : Yes
    Format settings, Reference  : 4 frames
    Codec ID                    : V_MPEG4/ISO/AVC
    Duration                    : 1 h 30 min
    Bit rate mode               : Constant
    Bit rate                    : 25.0 Mb/s
    Width                       : 1 920 pixels
    Height                      : 1 080 pixels
    Display aspect ratio        : 16:9
    Frame rate mode             : Constant
    Frame rate                  : 24.000 FPS
    Color space                 : YUV
    Chroma subsampling          : 4:2:0
    Bit depth                   : 8 bits
    Scan type                   : Progressive
    Bits/(Pixel*Frame)          : 0.502
    Stream size                 : 15.7 GiB (98%)
    Title                       : REMUX HD1080p [CinemaniaHDD]
    Language                    : English
    Default                     : Yes
    Forced                      : Yes
    Color range                 : Limited
    Color primaries             : BT.709
    Transfer characteristics    : BT.709
    Matrix coefficients         : BT.709
    Original source medium      : Blu-ray

    Audio #1
    ID                          : 2
    Format                      : AC-3
    Format/Info                 : Audio Coding 3
    Commercial name             : Dolby Digital
    Codec ID                    : A_AC3
    Duration                    : 1 h 30 min
    Bit rate mode               : Constant
    Bit rate                    : 256 kb/s
    Channel(s)                  : 2 channels
    Channel layout              : L R
    Sampling rate               : 48.0 kHz
    Frame rate                  : 31.250 FPS (1536 SPF)
    Compression mode            : Lossy
    Stream size                 : 165 MiB (1%)
    Title                       : Español Latino [CinemaniaHDD]
    Language                    : Spanish
    Service kind                : Complete Main
    Default                     : Yes
    Forced                      : Yes

    Audio #2
    ID                          : 3
    ID in the original source m : 4352 (0x1100)
    Format                      : AC-3
    Format/Info                 : Audio Coding 3
    Commercial name             : Dolby Digital
    Codec ID                    : A_AC3
    Duration                    : 1 h 30 min
    Bit rate mode               : Constant
    Bit rate                    : 320 kb/s
    Channel(s)                  : 2 channels
    Channel layout              : L R
    Sampling rate               : 48.0 kHz
    Frame rate                  : 31.250 FPS (1536 SPF)
    Compression mode            : Lossy
    Stream size                 : 207 MiB (1%)
    Title                       : Ingles [CinemaniaHDD]
    Language                    : English
    Service kind                : Complete Main
    Default                     : No
    Forced                      : No
    Original source medium      : Blu-ray

    Text #1
    ID                          : 4
    Format                      : UTF-8
    Codec ID                    : S_TEXT/UTF8
    Codec ID/Info               : UTF-8 Plain Text
    Duration                    : 1 h 25 min
    Bit rate                    : 0 b/s
    Count of elements           : 6
    Stream size                 : 195 Bytes (0%)
    Title                       : Forzados-SRT [CinemaniaHDD]
    Language                    : Spanish
    Default                     : Yes
    Forced                      : Yes

    Text #2
    ID                          : 5
    Format                      : UTF-8
    Codec ID                    : S_TEXT/UTF8
    Codec ID/Info               : UTF-8 Plain Text
    Duration                    : 1 h 27 min
    Bit rate                    : 59 b/s
    Count of elements           : 999
    Stream size                 : 38.5 KiB (0%)
    Title                       : Español-SRT [CinemaniaHDD]
    Language                    : Spanish
    Default                     : No
    Forced                      : No

    Text #3
    ID                          : 6
    Format                      : UTF-8
    Codec ID                    : S_TEXT/UTF8
    Codec ID/Info               : UTF-8 Plain Text
    Duration                    : 1 h 29 min
    Bit rate                    : 69 b/s
    Count of elements           : 1585
    Stream size                 : 45.8 KiB (0%)
    Title                       : Ingles [CinemaniaHDD]
    Language                    : English
    Default                     : No
    Forced                      : No

    Menu
    00:00:00.000                : Chapter 01
    00:04:59.833                : Chapter 02
    00:10:00.041                : Chapter 03
    00:15:00.333                : Chapter 04
    00:19:59.791                : Chapter 05
    00:24:59.708                : Chapter 06
    00:30:00.458                : Chapter 07
    00:35:00.250                : Chapter 08
    00:39:59.625                : Chapter 09
    00:45:00.125                : Chapter 10
    00:50:00.375                : Chapter 11
    00:55:00.291                : Chapter 12
    01:00:00.000                : Chapter 13
    01:04:59.708                : Chapter 14
    01:09:59.833                : Chapter 15
    01:14:59.625                : Chapter 16
    01:19:59.666                : Chapter 17
    01:25:00.125                : Chapter 18

  • Peso: 16.0 GiB

Sinopsis

Descargar El Regreso De Los Muertos Vivientes (1985) 35MM OPEN MATTE REMUX 1080p Latino. Frank y su aprendiz Freddy terminan su turno en un almacén de productos sanitarios. Charlando, Frank cuenta al joven que los hechos narrados en lapelícula la Noche de los Muertos Vivientes fueron reales, pero han sido ocultados por las autoridades. Para convencer al chico de queno miente, le lleva al sótano, donde le enseña un barril que contiene a uno de los zombies, y el gas que en su momento le devolvió la vida. Accidentalmente abren el barril, liberando tanto al muerto viviente como el gas, que alcanza un cementerio cercano. Sin saberlo, un grupo de jóvenes que han ido a pasar la noche al cementerio serán testigos del despertar de los muertos.

Audio Español Latino AC3 2.0 Web-DL – Ingles AC3 2.0 Bluray
Disponible Solo Para VIP!!!

Nota: version Open Matte especial que a diferencia de los tradicionales, utiliza el escaneo completo de los 35mm. Enjoy!!! 😀

Ficha técnica

Video trailer de la película

Enlaces de descarga

Rip de Bluray

Descargar El Regreso De Los Muertos Vivientes (1985) 35MM OPEN MATTE REMUX 1080p Latino


Aportes de DPeliculasHDmega la pass es:dpeliculashdmega.org Aportes de CinemaniaHD la pass es:cinemaniahdd.com Aportes recientes:cinemaniahdd.net
Guardado en : Comedia , OPEN MATTE , Remux , Terror

Películas relacionadas

  • iZombie (2016) Temporada 02 REMUX 1080p Latino

    iZombie (2016) Temporada 02 REMUX 1080p Latino

    2015
    iZombie (2016) Temporada 02 REMUX 1080p Latino

    0h 42m 2015

    Descargar iZombie (2016) Temporada 02 REMUX 1080p Latino. Gira en torno a una estudiante de medicina...

    Director: Rob Thomas

    Género: Crimen

    Actores: Rose McIver

  • iZombie (2015) Temporada 01 REMUX 1080p Latino

    iZombie (2015) Temporada 01 REMUX 1080p Latino

    2015
    iZombie (2015) Temporada 01 REMUX 1080p Latino

    0h 42m 2015

    Descargar iZombie (2015) Temporada 01 REMUX 1080p Latino. Gira en torno a una estudiante de medicina...

    Director: Rob Thomas

    Género: Crimen

    Actores: Rose McIver

  • Fear (2023) AMZN WEB-DL 1080p Latino

    Fear (2023) AMZN WEB-DL 1080p Latino

    2023
    Fear (2023) AMZN WEB-DL 1080p Latino

    1h 38m 2023

    Una escapada muy necesaria y un fin de semana de celebración se convierte en una pesadilla debido a...

    Director: Deon Taylor

    Género: Drama

    Actores: Whylip Lee

  • Good Burger 2 (2023) HD 1080p Latino

    Good Burger 2 (2023) HD 1080p Latino

    2023
    Good Burger 2 (2023) HD 1080p Latino

    1h 31m 2023

    Descargar Good Burger 2 (2023) HD 1080p Latino. Después de que su último invento falla, Ed le da la...

    Director: Ross Novie

    Género: Comedia

    Actores: Zoe Saldana

  • Good Burger 2 (2023) PLACEBO Full HD 1080p Latino

    Good Burger 2 (2023) PLACEBO Full HD 1080p Latino

    2023
    Good Burger 2 (2023) PLACEBO Full HD 1080p Latino

    1h 31m 2023

    Descargar Good Burger 2 (2023) PLACEBO Full HD 1080p Latino. Después de que su último invento falla,...

    Director: Ross Novie

    Género: Comedia

    Actores: Zoe Saldana

descargar El Regreso De Los Muertos Vivientes (1985) 35MM OPEN MATTE REMUX 1080p Latino Full 1080p 1080p gratis, El Regreso De Los Muertos Vivientes (1985) 35MM OPEN MATTE REMUX 1080p Latino Full 1080p mega 1 link, El Regreso De Los Muertos Vivientes (1985) 35MM OPEN MATTE REMUX 1080p Latino Full 1080p pelicula completa, descargar El Regreso De Los Muertos Vivientes (1985) 35MM OPEN MATTE REMUX 1080p Latino Full 1080p gratis en mega.

El Regreso De Los Muertos Vivientes (1985) 35MM OPEN MATTE REMUX 1080p Latino pelicula full hd, El Regreso De Los Muertos Vivientes (1985) 35MM OPEN MATTE REMUX 1080p Latino mega latino, El Regreso De Los Muertos Vivientes (1985) 35MM OPEN MATTE REMUX 1080p Latino 4k latino, El Regreso De Los Muertos Vivientes (1985) 35MM OPEN MATTE REMUX 1080p Latino pelicula completa, El Regreso De Los Muertos Vivientes (1985) 35MM OPEN MATTE REMUX 1080p Latino descargar gratis, descargar El Regreso De Los Muertos Vivientes (1985) 35MM OPEN MATTE REMUX 1080p Latino pelicula latino, El Regreso De Los Muertos Vivientes (1985) 35MM OPEN MATTE REMUX 1080p Latino 1 link mega, El Regreso De Los Muertos Vivientes (1985) 35MM OPEN MATTE REMUX 1080p Latino 1 link google drive, El Regreso De Los Muertos Vivientes (1985) 35MM OPEN MATTE REMUX 1080p Latino hd 1080p latino.
Comentarios 0