×

¿Problemas para descargar con Mozilla, EDGE? Deshabilita la opción "Abrir vinculos en una pestaña nueva" tal como lo muestra ésta imagen.

The Report (2019) AMZN WEB-DL 1080p Latino

890 vistas

Información de The Report (2019) AMZN WEB-DL 1080p Latino

Datos de la película

  • Calidad: WEBDL
  • Audio: Español Latino E-AC3 5.1 AMAZON - Ingles E-AC3 5.1 AMAZON
  • Subtitulos: Español Latino SRT- FORZADOS SRT
  • Resolución: 1920x800
  • Formato: MKV
  • Codec: H.264
  • Encoder: cinemaniahdd
  • Mediainfo: Clic para Mostrar Datos Ver
  • The Report (2019) AMZN WEB-DL 1080p Latino.mkv
    Format                      : Matroska
    Format version              : Version 4
    File size                   : 3.38 GiB
    Duration                    : 1 h 59 min
    Overall bit rate            : 4 042 kb/s
    Movie name                  : The Report (2019) - CinemaniaHDD.Net
    Encoded date                : UTC 2019-11-29 05:20:21
    Writing application         : mkvmerge v38.0.0 ('The Silent Type') 64-bit
    Writing library             : libebml v1.3.9 + libmatroska v1.5.2

    Video
    ID                          : 1
    Format                      : AVC
    Format/Info                 : Advanced Video Codec
    Format profile              : High@L4
    Format settings             : CABAC / 4 Ref Frames
    Format settings, CABAC      : Yes
    Format settings, ReFrames   : 4 frames
    Codec ID                    : V_MPEG4/ISO/AVC
    Duration                    : 1 h 59 min
    Bit rate                    : 2 759 kb/s
    Width                       : 1 920 pixels
    Height                      : 800 pixels
    Display aspect ratio        : 2.40:1
    Frame rate mode             : Constant
    Frame rate                  : 23.976 (24000/1001) FPS
    Color space                 : YUV
    Chroma subsampling          : 4:2:0
    Bit depth                   : 8 bits
    Scan type                   : Progressive
    Bits/(Pixel*Frame)          : 0.075
    Stream size                 : 2.31 GiB (68%)
    Title                       : CinemaniaHDD
    Default                     : Yes
    Forced                      : No
    Color range                 : Limited
    Color primaries             : BT.709
    Transfer characteristics    : BT.709
    Matrix coefficients         : BT.709

    Audio #1
    ID                          : 2
    Format                      : E-AC-3
    Format/Info                 : Enhanced AC-3
    Commercial name             : Dolby Digital Plus
    Codec ID                    : A_EAC3
    Duration                    : 1 h 59 min
    Bit rate mode               : Constant
    Bit rate                    : 640 kb/s
    Channel(s)                  : 6 channels
    Channel layout              : L R C LFE Ls Rs
    Sampling rate               : 48.0 kHz
    Frame rate                  : 31.250 FPS (1536 SPF)
    Compression mode            : Lossy
    Stream size                 : 548 MiB (16%)
    Title                       : Español latino [CinemaniaHDD]
    Language                    : Spanish
    Service kind                : Complete Main
    Default                     : Yes
    Forced                      : No

    Audio #2
    ID                          : 3
    Format                      : E-AC-3
    Format/Info                 : Enhanced AC-3
    Commercial name             : Dolby Digital Plus
    Codec ID                    : A_EAC3
    Duration                    : 1 h 59 min
    Bit rate mode               : Constant
    Bit rate                    : 640 kb/s
    Channel(s)                  : 6 channels
    Channel layout              : L R C LFE Ls Rs
    Sampling rate               : 48.0 kHz
    Frame rate                  : 31.250 FPS (1536 SPF)
    Compression mode            : Lossy
    Stream size                 : 548 MiB (16%)
    Title                       : Inglés [CinemaniaHDD]
    Language                    : English
    Service kind                : Complete Main
    Default                     : No
    Forced                      : No

    Text #1
    ID                          : 4
    Format                      : UTF-8
    Codec ID                    : S_TEXT/UTF8
    Codec ID/Info               : UTF-8 Plain Text
    Duration                    : 1 h 52 min
    Bit rate                    : 2 b/s
    Count of elements           : 63
    Stream size                 : 1.98 KiB (0%)
    Title                       : Forzados [CinemaniaHDD]
    Language                    : Spanish
    Default                     : Yes
    Forced                      : Yes

    Text #2
    ID                          : 5
    Format                      : UTF-8
    Codec ID                    : S_TEXT/UTF8
    Codec ID/Info               : UTF-8 Plain Text
    Duration                    : 1 h 52 min
    Bit rate                    : 87 b/s
    Count of elements           : 1798
    Stream size                 : 72.1 KiB (0%)
    Title                       : Español latino [CinemaniaHDD]
    Language                    : Spanish
    Default                     : No
    Forced                      : No

     

  • Peso: 3.38 GiB

Sinopsis

La historia de Daniel Jones, investigador principal del amplio estudio del Senado de los EE. UU. Sobre el Programa de detención e interrogatorio de la CIA, que resultó ser brutal, inmoral e ineficaz. Con la verdad en juego, Jones luchó incansablemente para hacer público lo que muchos en el poder intentaron mantener oculto.

Ficha técnica

  • Titulo original: The Report
  • Fecha de lanzamiento: 12-09-2019 (United States of America)
  • Director: Scott Z. Burns
  • Género: Drama, Historia

Video trailer de la película

Enlaces de descarga

Rip de Bluray

Descargar The Report (2019) AMZN WEB-DL 1080p Latino




Aportes de DPeliculasHDmega la pass es:dpeliculashdmega.org Aportes de CinemaniaHD la pass es:cinemaniahdd.com
Guardado en : Drama , Historia

Películas relacionadas

descargar The Report (2019) AMZN WEB-DL 1080p Latino WEBDL 1080p gratis, The Report (2019) AMZN WEB-DL 1080p Latino WEBDL mega 1 link, The Report (2019) AMZN WEB-DL 1080p Latino WEBDL pelicula completa, descargar The Report (2019) AMZN WEB-DL 1080p Latino WEBDL gratis en mega.

The Report (2019) AMZN WEB-DL 1080p Latino pelicula full hd, The Report (2019) AMZN WEB-DL 1080p Latino mega latino, The Report (2019) AMZN WEB-DL 1080p Latino 4k latino, The Report (2019) AMZN WEB-DL 1080p Latino pelicula completa, The Report (2019) AMZN WEB-DL 1080p Latino descargar gratis, descargar The Report (2019) AMZN WEB-DL 1080p Latino pelicula latino, The Report (2019) AMZN WEB-DL 1080p Latino 1 link mega, The Report (2019) AMZN WEB-DL 1080p Latino 1 link google drive, The Report (2019) AMZN WEB-DL 1080p Latino hd 1080p latino.
Comentarios 0