The Recall (2017) 1080p Latino

3.088 vistas
1 estrella2 estrellas3 estrellas4 estrellas5 estrellas (Ninguna valoración todavía)
Cargando…

Información de The Recall (2017) 1080p Latino

Datos de la película

  • Calidad: 1080p
  • Audio: Español Latino AC3 2.0 iTUNES - Ingles AC3 5.1 BLURAY
  • Subtitulos: Español Latino SRT - Ingles SRT
  • Resolución: 1912x808p
  • Formato: MKV
  • Codec: H.264
  • Encoder: Dpelis
  • Mediainfo: Clic para Mostrar Datos Ver
  • The Recall (2017) 1080p Latino.mkv
    Format                      : Matroska
    Format version              : Version 4 / Version 2
    File size                   : 2.56 GiB
    Duration                    : 1 h 31 min
    Overall bit rate            : 4 020 kb/s
    Movie name                  : DPeliculasHDMega.ORG
    Encoded date                : UTC 2017-08-23 01:05:07
    Writing application         : mkvmerge v10.0.0 ('To Drown In You') 64bit
    Writing library             : libebml v1.3.4 + libmatroska v1.4.5

    Video
    ID                          : 1
    Format                      : AVC
    Format/Info                 : Advanced Video Codec
    Format profile              : High@L4.1
    Format settings, CABAC      : Yes
    Format settings, ReFrames   : 4 frames
    Codec ID                    : V_MPEG4/ISO/AVC
    Duration                    : 1 h 31 min
    Bit rate                    : 3 500 kb/s
    Width                       : 1 912 pixels
    Height                      : 808 pixels
    Display aspect ratio        : 2.35:1
    Frame rate mode             : Constant
    Frame rate                  : 23.976 (24000/1001) FPS
    Color space                 : YUV
    Chroma subsampling          : 4:2:0
    Bit depth                   : 8 bits
    Scan type                   : Progressive
    Bits/(Pixel*Frame)          : 0.094
    Stream size                 : 2.19 GiB (86%)
    Writing library             : x264 core 148 r2708 86b7198
    Encoding settings           : cabac=1 / ref=3 / deblock=1:0:0 / analyse=0x3:0x113 / me=hex / subme=7 / psy=1 / psy_rd=1.00:0.00 / mixed_ref=1 / me_range=16 / chroma_me=1 / trellis=1 / 8x8dct=1 / cqm=0 / deadzone=21,11 / fast_pskip=1 / chroma_qp_offset=-2 / threads=25 / lookahead_threads=4 / sliced_threads=0 / nr=0 / decimate=1 / interlaced=0 / bluray_compat=0 / constrained_intra=0 / bframes=3 / b_pyramid=2 / b_adapt=1 / b_bias=0 / direct=1 / weightb=1 / open_gop=0 / weightp=2 / keyint=240 / keyint_min=24 / scenecut=40 / intra_refresh=0 / rc_lookahead=40 / rc=abr / mbtree=1 / bitrate=3500 / ratetol=1.0 / qcomp=0.60 / qpmin=0 / qpmax=69 / qpstep=4 / vbv_maxrate=62500 / vbv_bufsize=78125 / nal_hrd=none / filler=0 / ip_ratio=1.40 / aq=1:1.00
    Default                     : Yes
    Forced                      : No
    Color range                 : Limited
    Color primaries             : BT.709
    Transfer characteristics    : BT.709
    Matrix coefficients         : BT.709

    Audio #1
    ID                          : 2
    Format                      : AC-3
    Format/Info                 : Audio Coding 3
    Format settings, Endianness : Big
    Codec ID                    : A_AC3
    Duration                    : 1 h 31 min
    Bit rate mode               : Constant
    Bit rate                    : 192 kb/s
    Channel(s)                  : 2 channels
    Channel positions           : Front: L R
    Sampling rate               : 48.0 kHz
    Frame rate                  : 31.250 FPS (1536 spf)
    Bit depth                   : 16 bits
    Compression mode            : Lossy
    Delay relative to video     : 3 s 895 ms
    Stream size                 : 125 MiB (5%)
    Language                    : Spanish
    Service kind                : Complete Main
    Default                     : Yes
    Forced                      : No

    Audio #2
    ID                          : 3
    Format                      : AC-3
    Format/Info                 : Audio Coding 3
    Format settings, Endianness : Big
    Codec ID                    : A_AC3
    Duration                    : 1 h 31 min
    Bit rate mode               : Constant
    Bit rate                    : 384 kb/s
    Channel(s)                  : 6 channels
    Channel positions           : Front: L C R, Side: L R, LFE
    Sampling rate               : 48.0 kHz
    Frame rate                  : 31.250 FPS (1536 spf)
    Bit depth                   : 16 bits
    Compression mode            : Lossy
    Delay relative to video     : -5 ms
    Stream size                 : 250 MiB (10%)
    Language                    : English
    Service kind                : Complete Main
    Default                     : No
    Forced                      : No

    Text #1
    ID                          : 4
    Format                      : UTF-8
    Codec ID                    : S_TEXT/UTF8
    Codec ID/Info               : UTF-8 Plain Text
    Duration                    : 1 h 26 min
    Bit rate                    : 43 b/s
    Count of elements           : 935
    Stream size                 : 27.6 KiB (0%)
    Language                    : Spanish
    Default                     : Yes
    Forced                      : No

    Text #2
    ID                          : 5
    Format                      : UTF-8
    Codec ID                    : S_TEXT/UTF8
    Codec ID/Info               : UTF-8 Plain Text
    Duration                    : 1 h 24 min
    Bit rate                    : 38 b/s
    Count of elements           : 754
    Stream size                 : 23.9 KiB (0%)
    Language                    : English
    Default                     : No
    Forced                      : No

    Menu
    00:00:00.000                : en:00:00:00.000
    00:10:38.388                : en:00:10:38.388
    00:28:34.338                : en:00:28:34.254
    00:44:13.818                : en:00:44:13.818
    00:58:46.440                : en:00:58:46.273
    01:18:29.788                : en:01:18:29.788

  • Peso: 2.56 GB

Sinopsis

The Recall Latino empieza como si de un slasher juvenil se tratase, con un grupo de amigos de vacaciones en una cabaña aislada en medio del bosque, cuando de repente atacan los aliens. Allí se toparán con un misterioso cazador que ya predijo la llegada de los alienígenas, y que los ayudará a escapar.

Ficha técnica

  • Titulo original: The Recall
  • Fecha de lanzamiento: 02-06-2017 (Canada)
  • Director: Mauro Borreli
  • Género: Ciencia ficción
  • Puntuación: 0.0 0 votos
  • Duración:
    1h 31m

Video trailer de la película

Enlaces de descarga

Rip de Bluray

Descargar The Recall (2017) 1080p Latino




Aportes de DPeliculasHDmega la pass es:dpeliculashdmega.org Aportes de CinemaniaHD la pass es:cinemaniahdd.com
Guardado en : Ciencia ficción

Películas relacionadas

  • Kin (2018) Full 1080p Latino

    2018
    Kin (2018) Full 1080p Latino

    5.0 1h 42m 2018

    Perseguidos por un criminal vengativo (James Franco) y una banda de soldados sobrenaturales,​ un exconvicto...

    Director: Josh Baker

    Género: Acción

    Actores: Zoë Kravitz

  • Legado (2018) 1080p Latino

    2018
    Legado (2018) 1080p Latino

    2.3 1h 42m 2018

    descargar Legado (2018) 1080p Latino; Mega, Google Drive. Perseguidos por un criminal vengativo (James...

    Director: Josh Baker

    Género: Acción

    Actores: Zoë Kravitz

  • Ant-Man y la Avispa (2018) 4K HDR Latino

    2018
    Ant-Man y la Avispa (2018) 4K HDR Latino

    4.2 2h 18m 2018

    Mientras Scott Lang se convierte en un súper héroe y en un padre, Hope van Dyne y el Dr. Hank Pym presentan...

    Director: Robin Meyers

    Género: 4K HDR

    Actores: Zachary Culbertson

  • Luis y los alienígenas (2018) 1080p Latino

    2018
    Luis y los alienígenas (2018) 1080p Latino

    3.7 1h 40m 2018

    Descargar Luis y los alienígenas (2018) 1080p Latino, Mega, Google Drive. Cuenta la historia de un niño...

    Director: Wolfgang Lauenstein

    Género: Animación

    Actores: Michael Gregorio

Comentarios 5
  • Luis - 23 agosto, 2017

    Muchas Gracias la estaba esperando con muchas ansias,

  • seba - 11 agosto, 2017

    cuándo en caratula gris ???

    • dpelis - 11 agosto, 2017

      aun no hay fecha.

  • grodryq - 10 agosto, 2017

    mucha publicidad, uno le da ir al enlace despues de abrir infinidad de publicidad y aparecen mas

    • dpelis - 10 agosto, 2017

      no se queje estimado ademas no es publicidad ofensiva. o virus.