The Rain (2020) Temporada 3 NF WEB-DL HDR-1080p Latino

42 vistas
1 estrella2 estrellas3 estrellas4 estrellas5 estrellas (1 votos, promedio: 5,00 de 5)
Cargando...

Información de The Rain (2020) Temporada 3 NF WEB-DL HDR-1080p Latino

Datos de la película

  • Calidad: WEBDL
  • Audio: Español Latino AC3 5.1 Netflix - Ingles AC3 5.1 Netflix
  • Subtitulos: Español Latino SRT- FORZADOS SRT
  • Resolución: 1920x1080p
  • Formato: MKV
  • Codec: H.264
  • Encoder: CinemaniaHD
  • Mediainfo: Clic para Mostrar Datos Ver
  • The Rain (2020) HDR S0301 NF 1080p Latino.mkv
    Format                      : Matroska
    Format version              : Version 4
    File size                   : 2.20 GiB
    Duration                    : 48 min 24 s
    Overall bit rate            : 6 514 kb/s
    Movie name                  : The Rain (2020) HDR S0301 NF 1080p Latino
    Encoded date                : UTC 2020-08-06 19:20:11
    Writing application         : mkvmerge v46.0.0 ('No Deeper Escape') 64-bit
    Writing library             : libebml v1.3.10 + libmatroska v1.5.2

    Video
    ID                          : 1
    Format                      : HEVC
    Format/Info                 : High Efficiency Video Coding
    Format profile              : Main 10@L4@Main
    Codec ID                    : V_MPEGH/ISO/HEVC
    Duration                    : 48 min 24 s
    Bit rate                    : 5 744 kb/s
    Width                       : 1 920 pixels
    Height                      : 1 080 pixels
    Display aspect ratio        : 16:9
    Frame rate mode             : Constant
    Frame rate                  : 25.000 FPS
    Color space                 : YUV
    Chroma subsampling          : 4:2:0
    Bit depth                   : 10 bits
    Bits/(Pixel*Frame)          : 0.111
    Stream size                 : 1.94 GiB (88%)
    Title                       : CinemaniaHDD.Net
    Default                     : Yes
    Forced                      : No
    Color range                 : Full

    Audio #1
    ID                          : 2
    Format                      : AC-3
    Format/Info                 : Audio Coding 3
    Commercial name             : Dolby Digital
    Codec ID                    : A_AC3
    Duration                    : 48 min 24 s
    Bit rate mode               : Constant
    Bit rate                    : 384 kb/s
    Channel(s)                  : 6 channels
    Channel layout              : L R C LFE Ls Rs
    Sampling rate               : 48.0 kHz
    Frame rate                  : 31.250 FPS (1536 SPF)
    Compression mode            : Lossy
    Stream size                 : 133 MiB (6%)
    Title                       : Español latino [CinemaniaHDD]
    Language                    : Spanish
    Service kind                : Complete Main
    Default                     : Yes
    Forced                      : No

    Audio #2
    ID                          : 3
    Format                      : AC-3
    Format/Info                 : Audio Coding 3
    Commercial name             : Dolby Digital
    Codec ID                    : A_AC3
    Duration                    : 48 min 24 s
    Bit rate mode               : Constant
    Bit rate                    : 384 kb/s
    Channel(s)                  : 6 channels
    Channel layout              : L R C LFE Ls Rs
    Sampling rate               : 48.0 kHz
    Frame rate                  : 31.250 FPS (1536 SPF)
    Compression mode            : Lossy
    Stream size                 : 133 MiB (6%)
    Title                       : Inglés [CinemaniaHDD]
    Language                    : English
    Service kind                : Complete Main
    Default                     : No
    Forced                      : No

    Text #1
    ID                          : 4
    Format                      : UTF-8
    Codec ID                    : S_TEXT/UTF8
    Codec ID/Info               : UTF-8 Plain Text
    Duration                    : 47 min 43 s
    Bit rate                    : 28 b/s
    Count of elements           : 446
    Stream size                 : 10.00 KiB (0%)
    Title                       : Spanish
    Language                    : Spanish
    Default                     : No
    Forced                      : No

    Text #2
    ID                          : 5
    Format                      : UTF-8
    Codec ID                    : S_TEXT/UTF8
    Codec ID/Info               : UTF-8 Plain Text
    Duration                    : 47 min 43 s
    Bit rate                    : 0 b/s
    Count of elements           : 11
    Stream size                 : 306 Bytes (0%)
    Title                       : Forced
    Language                    : Spanish
    Default                     : Yes
    Forced                      : Yes

  • Peso: 12.5 GB

Sinopsis

Según la sinopsis oficial proporcionada por Netflix, la tercera serie continuará en el punto exacto donde se detuvo la carrera anterior, con Simone y Rasmus divididos sobre la mejor manera de salvar a la humanidad en el paisaje post-apocalíptico.

La sinopsis dice: “Rasmus quiere infectar a todos con la misma versión beta del virus que lo convirtió en un superhumano, mientras Simone insiste en que debe haber una cura. ¿Lograrán dejar de lado sus diferencias para hacer lo correcto?

 

Desafortunadamente para los fanáticos del programa, este nuevo lote de episodios será el último, con la cuenta oficial de Twitter de The Rain anunciando que sería la última temporada en el momento de la renovación en 2019. Esperemos que salga con una explosión …

Ficha técnica

Video trailer de la película

Enlaces de descarga

Rip de Bluray

Descargar The Rain (2020) Temporada 3 NF WEB-DL HDR-1080p Latino




Aportes de DPeliculasHDmega la pass es:dpeliculashdmega.org Aportes de CinemaniaHD la pass es:cinemaniahdd.com

Películas relacionadas

Comentarios 1
  • Drogonfaruk - 11 agosto, 2020

    Buenas, por casualidad alguien sabe porque en la TV se siguen viendo solo en color verde y morado? tengo un samsung compatible con 4K y HDR