×

¿Problemas para descargar con Mozilla, EDGE? Deshabilita la opción "Abrir vinculos en una pestaña nueva" tal como lo muestra ésta imagen.

The Raid Redemption (2011) REMUX 4K HDR latino – CMHDD

65 vistas

Información de The Raid Redemption (2011) REMUX 4K HDR latino – CMHDD

Datos de la película

  • Calidad: 4K HDR
  • Audio: Se especifica abajo de la Sinopsis
  • Subtitulos: Español Latino PGS
  • Resolución: 3840x2160p
  • Formato: MKV
  • Codec: H.264
  • Encoder: Dracarys
  • Mediainfo: Clic para Mostrar Datos Ver
  • Format                      : Matroska
    Format version              : Version 4
    File size                   : 61.3 GiB
    Duration                    : 1 h 41 min
    Overall bit rate mode       : Variable
    Overall bit rate            : 86.8 Mb/s
    Movie name                  : The Raid: Redemption (2011) REMUX 4K HDR latino - CMHDD
    Encoded date                : UTC 2024-02-16 01:45:55
    Writing application         : mkvmerge v47.0.0 ('Black Flag') 64-bit
    Writing library             : libebml v1.3.10 + libmatroska v1.5.2
    Cover                       : Yes
    Attachments                 : cover.jpg

    Video
    ID                          : 1
    ID in the original source m : 4113 (0x1011)
    Format                      : HEVC
    Format/Info                 : High Efficiency Video Coding
    Format profile              : Main 10@L5.1@High
    HDR format                  : SMPTE ST 2086, HDR10 compatible
    Codec ID                    : V_MPEGH/ISO/HEVC
    Duration                    : 1 h 41 min
    Bit rate                    : 80.1 Mb/s
    Width                       : 3 840 pixels
    Height                      : 2 160 pixels
    Display aspect ratio        : 16:9
    Frame rate mode             : Constant
    Frame rate                  : 23.976 (24000/1001) FPS
    Color space                 : YUV
    Chroma subsampling          : 4:2:0 (Type 2)
    Bit depth                   : 10 bits
    Bits/(Pixel*Frame)          : 0.403
    Stream size                 : 56.5 GiB (92%)
    Default                     : Yes
    Forced                      : No
    Color range                 : Limited
    Color primaries             : BT.2020
    Transfer characteristics    : PQ
    Matrix coefficients         : BT.2020 non-constant
    Mastering display color pri : Display P3
    Mastering display luminance : min: 0.0001 cd/m2, max: 1000 cd/m2
    Maximum Content Light Level : 599 cd/m2
    Maximum Frame-Average Light : 91 cd/m2
    Original source medium      : Blu-ray

    Audio #1
    ID                          : 2
    ID in the original source m : 4355 (0x1103)
    Format                      : DTS XLL
    Format/Info                 : Digital Theater Systems
    Commercial name             : DTS-HD Master Audio
    Codec ID                    : A_DTS
    Duration                    : 1 h 41 min
    Bit rate mode               : Variable
    Bit rate                    : 2 308 kb/s
    Channel(s)                  : 6 channels
    Channel layout              : C L R Ls Rs LFE
    Sampling rate               : 48.0 kHz
    Frame rate                  : 93.750 FPS (512 SPF)
    Bit depth                   : 16 bits
    Compression mode            : Lossless
    Stream size                 : 1.63 GiB (3%)
    Language                    : Indonesian
    Default                     : No
    Forced                      : No
    Original source medium      : Blu-ray

    Audio #2
    ID                          : 3
    ID in the original source m : 4356 (0x1104)
    Format                      : DTS XLL
    Format/Info                 : Digital Theater Systems
    Commercial name             : DTS-HD Master Audio
    Codec ID                    : A_DTS
    Duration                    : 1 h 41 min
    Bit rate mode               : Variable
    Bit rate                    : 2 225 kb/s
    Channel(s)                  : 6 channels
    Channel layout              : C L R Ls Rs LFE
    Sampling rate               : 48.0 kHz
    Frame rate                  : 93.750 FPS (512 SPF)
    Bit depth                   : 16 bits
    Compression mode            : Lossless
    Stream size                 : 1.57 GiB (3%)
    Language                    : English
    Default                     : No
    Forced                      : No
    Original source medium      : Blu-ray

    Audio #3
    ID                          : 4
    ID in the original source m : 4357 (0x1105)
    Format                      : DTS XLL
    Format/Info                 : Digital Theater Systems
    Commercial name             : DTS-HD Master Audio
    Codec ID                    : A_DTS
    Duration                    : 1 h 41 min
    Bit rate mode               : Variable
    Bit rate                    : 2 221 kb/s
    Channel(s)                  : 6 channels
    Channel layout              : C L R Ls Rs LFE
    Sampling rate               : 48.0 kHz
    Frame rate                  : 93.750 FPS (512 SPF)
    Bit depth                   : 16 bits
    Compression mode            : Lossless
    Stream size                 : 1.57 GiB (3%)
    Language                    : Spanish
    Default                     : Yes
    Forced                      : No
    Original source medium      : Blu-ray

    Text
    ID                          : 5
    ID in the original source m : 4770 (0x12A2)
    Format                      : PGS
    Muxing mode                 : zlib
    Codec ID                    : S_HDMV/PGS
    Codec ID/Info               : Picture based subtitle format used on BDs/HD-DVDs
    Duration                    : 1 h 39 min
    Bit rate                    : 13.4 kb/s
    Frame rate                  : 0.177 FPS
    Count of elements           : 1056
    Stream size                 : 9.48 MiB (0%)
    Language                    : Spanish
    Default                     : No
    Forced                      : No
    Original source medium      : Blu-ray

    Menu
    00:00:00.000                : en:Capítulo 01
    00:06:15.124                : en:Capítulo 02
    00:12:36.380                : en:Capítulo 03
    00:17:37.765                : en:Capítulo 04
    00:22:45.697                : en:Capítulo 05
    00:27:06.916                : en:Capítulo 06
    00:32:45.880                : en:Capítulo 07
    00:37:27.495                : en:Capítulo 08
    00:42:37.888                : en:Capítulo 09
    00:48:49.927                : en:Capítulo 10
    00:55:16.104                : en:Capítulo 11
    00:59:58.720                : en:Capítulo 12
    01:05:15.828                : en:Capítulo 13
    01:10:53.332                : en:Capítulo 14
    01:16:29.167                : en:Capítulo 15
    01:30:09.779                : en:Capítulo 16

     

  • Peso: 61.3 GiB

Sinopsis

Todo el mundo en Jakarta sabe que en los barrios bajos de la ciudad hay un edificio que sirve de refugio para los criminales más peligrosos de Indonesia. Algo así como una fortaleza del mal cuya leyenda crece día a día y a la que incluso la policía teme acercarse. Pese a ello, un grupo de fuerzas especiales de élite intentará derribar sus defensas y penetrar en sus entrañas. Pero la operación no sale según lo previsto, y los policías se encontrarán atrapados en el edificio, sin escapatoria posible y rodeados de asesinos y gángsters.

 

Latino: DTS-HD MA 5.1  –  indonesio: DTS-HD MA 5.1  –  Inglés: DTS-HD MA 5.1

Ficha técnica

Video trailer de la película

Enlaces de descarga

Rip de Bluray

Descargar The Raid Redemption (2011) REMUX 4K HDR latino – CMHDD




Aportes de DPeliculasHDmega la pass es:dpeliculashdmega.org Aportes de CinemaniaHD la pass es:cinemaniahdd.com Aportes recientes:cinemaniahdd.net
Guardado en : Acción , Crimen , Suspenso

Películas relacionadas

descargar The Raid Redemption (2011) REMUX 4K HDR latino – CMHDD 4K HDR 1080p gratis, The Raid Redemption (2011) REMUX 4K HDR latino – CMHDD 4K HDR mega 1 link, The Raid Redemption (2011) REMUX 4K HDR latino – CMHDD 4K HDR pelicula completa, descargar The Raid Redemption (2011) REMUX 4K HDR latino – CMHDD 4K HDR gratis en mega.

The Raid Redemption (2011) REMUX 4K HDR latino – CMHDD pelicula full hd, The Raid Redemption (2011) REMUX 4K HDR latino – CMHDD mega latino, The Raid Redemption (2011) REMUX 4K HDR latino – CMHDD 4k latino, The Raid Redemption (2011) REMUX 4K HDR latino – CMHDD pelicula completa, The Raid Redemption (2011) REMUX 4K HDR latino – CMHDD descargar gratis, descargar The Raid Redemption (2011) REMUX 4K HDR latino – CMHDD pelicula latino, The Raid Redemption (2011) REMUX 4K HDR latino – CMHDD 1 link mega, The Raid Redemption (2011) REMUX 4K HDR latino – CMHDD 1 link google drive, The Raid Redemption (2011) REMUX 4K HDR latino – CMHDD hd 1080p latino.
Comentarios 0