12 Horas Para Sobrevivir: El Año De La Elección (2016) REMUX 1080p Latino

25 vistas
1 estrella2 estrellas3 estrellas4 estrellas5 estrellas (Ninguna valoración todavía)
Cargando...

Información de 12 Horas Para Sobrevivir: El Año De La Elección (2016) REMUX 1080p Latino

Datos de la película

  • Calidad: Full 1080p
  • Audio: Español Latino DTS 5.1 BLURAY - Ingles DTS-HD 5.1 BLURAY
  • Subtitulos: Español Latino PGS - Ingles PGS
  • Resolución: 1920x1080p
  • Formato: MKV
  • Codec: H.264
  • Encoder: CinefiloCool
  • Mediainfo: Clic para Mostrar Datos Ver
  • The Purge El Año De La Eleccion (2016) REMUX 1080p Latino-CMHDD.mkv
    Format                      : Matroska
    Format version              : Version 4
    File size                   : 24.9 GiB
    Duration                    : 1 h 48 min
    Overall bit rate mode       : Variable
    Overall bit rate            : 32.8 Mb/s
    Movie name                  : The Purge Election Year (2016) CinemaniaHDD.Net
    Encoded date                : UTC 2021-09-24 18:49:17
    Writing application         : mkvmerge v56.1.0 ('My Friend') 64-bit
    Writing library             : libebml v1.4.2 + libmatroska v1.6.4
    Attachments                 : CINEMANIAHD.png

    Video
    ID                          : 1
    Format                      : AVC
    Format/Info                 : Advanced Video Codec
    Format profile              : High@L4.1
    Format settings             : CABAC / 4 Ref Frames
    Format settings, CABAC      : Yes
    Format settings, Reference  : 4 frames
    Codec ID                    : V_MPEG4/ISO/AVC
    Duration                    : 1 h 48 min
    Bit rate mode               : Variable
    Bit rate                    : 28.2 Mb/s
    Maximum bit rate            : 33.0 Mb/s
    Width                       : 1 920 pixels
    Height                      : 1 080 pixels
    Display aspect ratio        : 16:9
    Frame rate mode             : Constant
    Frame rate                  : 23.976 (24000/1001) FPS
    Color space                 : YUV
    Chroma subsampling          : 4:2:0
    Bit depth                   : 8 bits
    Scan type                   : Progressive
    Bits/(Pixel*Frame)          : 0.567
    Stream size                 : 21.4 GiB (86%)
    Title                       : REMUX HD1080p [CinemaniaHDD]
    Default                     : Yes
    Forced                      : Yes

    Audio #1
    ID                          : 2
    Format                      : DTS
    Format/Info                 : Digital Theater Systems
    Codec ID                    : A_DTS
    Duration                    : 1 h 48 min
    Bit rate mode               : Constant
    Bit rate                    : 768 kb/s
    Channel(s)                  : 6 channels
    Channel layout              : C L R Ls Rs LFE
    Sampling rate               : 48.0 kHz
    Frame rate                  : 93.750 FPS (512 SPF)
    Bit depth                   : 24 bits
    Compression mode            : Lossy
    Stream size                 : 598 MiB (2%)
    Title                       : Español Latino [CinemaniaHDD]
    Language                    : Spanish
    Default                     : Yes
    Forced                      : Yes

    Audio #2
    ID                          : 3
    Format                      : DTS XLL
    Format/Info                 : Digital Theater Systems
    Commercial name             : DTS-HD Master Audio
    Codec ID                    : A_DTS
    Duration                    : 1 h 48 min
    Bit rate mode               : Variable
    Bit rate                    : 3 812 kb/s
    Channel(s)                  : 6 channels
    Channel layout              : C L R Ls Rs LFE
    Sampling rate               : 48.0 kHz
    Frame rate                  : 93.750 FPS (512 SPF)
    Bit depth                   : 24 bits
    Compression mode            : Lossless
    Stream size                 : 2.90 GiB (12%)
    Title                       : Ingles [CinemaniaHDD]
    Language                    : English
    Default                     : No
    Forced                      : No

    Text #1
    ID                          : 4
    Format                      : PGS
    Muxing mode                 : zlib
    Codec ID                    : S_HDMV/PGS
    Codec ID/Info               : Picture based subtitle format used on BDs/HD-DVDs
    Duration                    : 1 h 47 min
    Bit rate                    : 586 b/s
    Count of elements           : 44
    Stream size                 : 462 KiB (0%)
    Title                       : Forzados-PGS [CinemaniaHDD]
    Language                    : Spanish
    Default                     : No
    Forced                      : No

    Text #2
    ID                          : 5
    Format                      : PGS
    Muxing mode                 : zlib
    Codec ID                    : S_HDMV/PGS
    Codec ID/Info               : Picture based subtitle format used on BDs/HD-DVDs
    Duration                    : 1 h 47 min
    Bit rate                    : 31.3 kb/s
    Count of elements           : 2437
    Stream size                 : 24.1 MiB (0%)
    Title                       : Español-PGS [CinemaniaHDD]
    Language                    : Spanish
    Default                     : No
    Forced                      : No

    Text #3
    ID                          : 6
    Format                      : PGS
    Muxing mode                 : zlib
    Codec ID                    : S_HDMV/PGS
    Codec ID/Info               : Picture based subtitle format used on BDs/HD-DVDs
    Duration                    : 1 h 43 min
    Bit rate                    : 40.7 kb/s
    Count of elements           : 2872
    Stream size                 : 30.1 MiB (0%)
    Title                       : Ingles-PGS [CinemaniaHDD]
    Language                    : English
    Default                     : No
    Forced                      : No

    Text #4
    ID                          : 7
    Format                      : UTF-8
    Codec ID                    : S_TEXT/UTF8
    Codec ID/Info               : UTF-8 Plain Text
    Duration                    : 1 h 40 min
    Bit rate                    : 0 b/s
    Count of elements           : 17
    Stream size                 : 475 Bytes (0%)
    Title                       : Forzados-SRT [CinemaniaHDD]
    Language                    : Spanish
    Default                     : Yes
    Forced                      : Yes

    Text #5
    ID                          : 8
    Format                      : UTF-8
    Codec ID                    : S_TEXT/UTF8
    Codec ID/Info               : UTF-8 Plain Text
    Duration                    : 1 h 42 min
    Bit rate                    : 51 b/s
    Count of elements           : 1212
    Stream size                 : 38.7 KiB (0%)
    Title                       : Español-SRT [CinemaniaHDD]
    Language                    : Spanish
    Default                     : No
    Forced                      : No

    Menu
    00:00:00.000                : :Chapter 01
    00:05:47.347                : :Chapter 02
    00:09:21.978                : :Chapter 03
    00:17:15.618                : :Chapter 04
    00:22:49.493                : :Chapter 05
    00:28:43.180                : :Chapter 06
    00:35:58.490                : :Chapter 07
    00:41:50.508                : :Chapter 08
    00:47:03.112                : :Chapter 09
    00:53:30.374                : :Chapter 10
    00:57:31.531                : :Chapter 11
    01:02:20.820                : :Chapter 12
    01:10:43.614                : :Chapter 13
    01:17:32.731                : :Chapter 14
    01:22:16.765                : :Chapter 15
    01:27:03.093                : :Chapter 16
    01:32:12.819                : :Chapter 17
    01:36:17.480                : :Chapter 18
    01:41:35.715                : :Chapter 19
    01:43:36.752                : :Chapter 20
    01:48:47.312                : :Chapter 21

  • Peso: 24.9 GiB

Sinopsis

Descargar 12 Horas Para Sobrevivir: El Año De La Elección (2016) REMUX 1080p Latino. Han pasado dos años desde que el ex-sargento de policía Leo Barnes (Frank Grillo) decidió no vengarse del hombre que mató a su hijo. Ahora Barnes dirige al equipo de seguridad que se encarga de proteger a la senadora Charlie Roan (Elizabeth Mitchell), una candidata a la Presidencia que reivindica la supresión de La Purga anual, que consiste en permitir, una noche al año, cualquier actividad criminal, incluído el asesinato. Roan considera que esta práctica perjudica sobre todo a los necesitados y a los pobres.

Disponible Solo Para VIP!!! 😀

Ficha técnica

Video trailer de la película

Enlaces de descarga

Rip de Bluray

Descargar 12 Horas Para Sobrevivir: El Año De La Elección (2016) REMUX 1080p Latino


Aportes de DPeliculasHDmega la pass es:dpeliculashdmega.org Aportes de CinemaniaHD la pass es:cinemaniahdd.com
Guardado en : Acción , Remux , Suspenso , Terror

Películas relacionadas

  • Dune (2021) HMAX 4K-HDR WEB-DL 2160p Latino

    Dune (2021) HMAX 4K-HDR WEB-DL 2160p Latino

    2021
    Dune (2021) HMAX 4K-HDR WEB-DL 2160p Latino

    5.0 2h 35m 2021

    El hijo de una familia noble trata de vengarse de la muerte de su padre al mismo tiempo que salva un...

    Director: Tom Struthers

    Género: Acción

    Actores: Zendaya

  • Dune (2021) HMAX WEB-DL 1080p Latino

    Dune (2021) HMAX WEB-DL 1080p Latino

    2021
    Dune (2021) HMAX WEB-DL 1080p Latino

    5.0 2h 35m 2021

    El hijo de una familia noble trata de vengarse de la muerte de su padre al mismo tiempo que salva un...

    Director: Tom Struthers

    Género: Acción

    Actores: Zendaya

  • Playhouse (2020) PLACEBO Full HD 1080p Latino

    Playhouse (2020) PLACEBO Full HD 1080p Latino

    2020
    Playhouse (2020) PLACEBO Full HD 1080p Latino

    0.0 1h 27m 2020

    Descargar Playhouse (2020) PLACEBO Full HD 1080p Latino. El temerario Jack Travis (William Holstead)...

    Director: Toby Watts

    Género: FULL 1080p Plateadas

    Actores: William Holstead

  • Playhouse (2020) HD 1080p Latino

    Playhouse (2020) HD 1080p Latino

    2020
    Playhouse (2020) HD 1080p Latino

    0.0 1h 27m 2020

    Descargar Playhouse (2020) HD 1080p Latino. El temerario Jack Travis (William Holstead) es un irreverente...

    Director: Toby Watts

    Género: HD 1080p

    Actores: William Holstead

  • Playhouse (2020) REMUX 1080p Latino

    Playhouse (2020) REMUX 1080p Latino

    2020
    Playhouse (2020) REMUX 1080p Latino

    0.0 1h 27m 2020

    Descargar Playhouse (2020) REMUX 1080p Latino. El temerario Jack Travis (William Holstead) es un irreverente...

    Director: Toby Watts

    Género: Remux

    Actores: William Holstead

12 Horas Para Sobrevivir: El Año De La Elección (2016) REMUX 1080p Latino pelicula full hd, 12 Horas Para Sobrevivir: El Año De La Elección (2016) REMUX 1080p Latino mega latino, 12 Horas Para Sobrevivir: El Año De La Elección (2016) REMUX 1080p Latino 4k latino, 12 Horas Para Sobrevivir: El Año De La Elección (2016) REMUX 1080p Latino pelicula completa, 12 Horas Para Sobrevivir: El Año De La Elección (2016) REMUX 1080p Latino descargar gratis, descargar 12 Horas Para Sobrevivir: El Año De La Elección (2016) REMUX 1080p Latino pelicula latino, 12 Horas Para Sobrevivir: El Año De La Elección (2016) REMUX 1080p Latino 1 link mega, 12 Horas Para Sobrevivir: El Año De La Elección (2016) REMUX 1080p Latino 1 link google drive, 12 Horas Para Sobrevivir: El Año De La Elección (2016) REMUX 1080p Latino hd 1080p latino.
Comentarios 0