×

¿Problemas para descargar con Mozilla, EDGE? Deshabilita la opción "Abrir vinculos en una pestaña nueva" tal como lo muestra ésta imagen.

The Purge: Election Year (2016) [Open Matte] WEB-DL 1080p Latino

32 vistas

Información de The Purge: Election Year (2016) [Open Matte] WEB-DL 1080p Latino

Datos de la película

  • Calidad: 1080p
  • Audio: Español Latino AC3 2.0 WEB-DL - Ingles AC3 5.1 WEB-DL
  • Subtitulos: Español Latino SRT- FORZADOS SRT
  • Resolución: 1920x1080
  • Formato: MKV
  • Codec: H.264
  • Encoder: cinemaniahdd
  • Mediainfo: Clic para Mostrar Datos Ver
  • The Purge. Election Year (2016) [OpenMatte] WEB-DL 1080p Latino [CNMNHDD].mkv Format                      : Matroska Format version              : Version 4 File size                   : 5.74 GiB Duration                    : 1 h 48 min Overall bit rate mode       : Variable Overall bit rate            : 7 552 kb/s Movie name                  : The Purge. Election Year (2016) OpenMatte [1080p] - CinemaniaHDD.Net Encoded date                : UTC 2023-01-14 21:36:10 Writing application         : mkvmerge v56.1.0 ('My Friend') 64-bit Writing library             : libebml v1.4.2 + libmatroska v1.6.4 Video ID                          : 1 Format                      : AVC Format/Info                 : Advanced Video Codec Format profile              : High@L4 Format settings             : CABAC / 4 Ref Frames Format settings, CABAC      : Yes Format settings, Reference  : 4 frames Codec ID                    : V_MPEG4/ISO/AVC Duration                    : 1 h 48 min Bit rate mode               : Variable Bit rate                    : 7 168 kb/s Maximum bit rate            : 12.7 Mb/s Width                       : 1 920 pixels Height                      : 1 080 pixels Display aspect ratio        : 16:9 Frame rate mode             : Constant Frame rate                  : 23.976 (24000/1001) FPS Color space                 : YUV Chroma subsampling          : 4:2:0 Bit depth                   : 8 bits Scan type                   : Progressive Bits/(Pixel*Frame)          : 0.144 Stream size                 : 5.45 GiB (95%) Title                       : CinemaniaHDD Default                     : Yes Forced                      : No Color range                 : Limited Color primaries             : BT.709 Transfer characteristics    : BT.709 Matrix coefficients         : BT.709 Audio #1 ID                          : 2 Format                      : AAC LC Format/Info                 : Advanced Audio Codec Low Complexity Codec ID                    : A_AAC-2 Duration                    : 1 h 48 min Bit rate                    : 125 kb/s Channel(s)                  : 2 channels Channel layout              : L R Sampling rate               : 48.0 kHz Frame rate                  : 46.875 FPS (1024 SPF) Compression mode            : Lossy Stream size                 : 97.6 MiB (2%) Title                       : Español latino [CinemaniaHDD] Language                    : Spanish Default                     : Yes Forced                      : No Audio #2 ID                          : 3 Format                      : E-AC-3 Format/Info                 : Enhanced AC-3 Commercial name             : Dolby Digital Plus Codec ID                    : A_EAC3 Duration                    : 1 h 48 min Bit rate mode               : Constant Bit rate                    : 256 kb/s Channel(s)                  : 6 channels Channel layout              : L R C LFE Ls Rs Sampling rate               : 48.0 kHz Frame rate                  : 31.250 FPS (1536 SPF) Compression mode            : Lossy Stream size                 : 199 MiB (3%) Title                       : Inglés [CinemaniaHDD] Language                    : English Service kind                : Complete Main Default                     : No Forced                      : No Text #1 ID                          : 4 Format                      : UTF-8 Codec ID                    : S_TEXT/UTF8 Codec ID/Info               : UTF-8 Plain Text Duration                    : 1 h 7 min Bit rate                    : 0 b/s Count of elements           : 7 Stream size                 : 120 Bytes (0%) Title                       : Forzados [CinemaniaHDD] Language                    : Spanish Default                     : Yes Forced                      : Yes Text #2 ID                          : 5 Format                      : UTF-8 Codec ID                    : S_TEXT/UTF8 Codec ID/Info               : UTF-8 Plain Text Duration                    : 1 h 42 min Bit rate                    : 47 b/s Count of elements           : 1217 Stream size                 : 35.3 KiB (0%) Title                       : Español latino [CinemaniaHDD] Language                    : Spanish Default                     : No Forced                      : No  
  • Peso: 5.74 GiB

Sinopsis

Han pasado dos años desde que el ex-sargento de policía Leo Barnes (Frank Grillo) decidió no vengarse del hombre que mató a su hijo. Ahora Barnes dirige al equipo de seguridad que se encarga de proteger a la senadora Charlie Roan (Elizabeth Mitchell), una candidata a la Presidencia que reivindica la supresión de La Purga anual, que consiste en permitir, una noche al año, cualquier actividad criminal, incluído el asesinato. Roan considera que esta práctica perjudica sobre todo a los necesitados y a los pobres.

Ficha técnica

Video trailer de la película

Enlaces de descarga

Rip de Bluray

Descargar The Purge: Election Year (2016) [Open Matte] WEB-DL 1080p Latino




Aportes de DPeliculasHDmega la pass es:dpeliculashdmega.org Aportes de CinemaniaHD la pass es:cinemaniahdd.com
Guardado en : Acción , OPEN MATTE , Suspenso , Terror

Películas relacionadas

descargar The Purge: Election Year (2016) [Open Matte] WEB-DL 1080p Latino 1080p 1080p gratis, The Purge: Election Year (2016) [Open Matte] WEB-DL 1080p Latino 1080p mega 1 link, The Purge: Election Year (2016) [Open Matte] WEB-DL 1080p Latino 1080p pelicula completa, descargar The Purge: Election Year (2016) [Open Matte] WEB-DL 1080p Latino 1080p gratis en mega.

The Purge: Election Year (2016) [Open Matte] WEB-DL 1080p Latino pelicula full hd, The Purge: Election Year (2016) [Open Matte] WEB-DL 1080p Latino mega latino, The Purge: Election Year (2016) [Open Matte] WEB-DL 1080p Latino 4k latino, The Purge: Election Year (2016) [Open Matte] WEB-DL 1080p Latino pelicula completa, The Purge: Election Year (2016) [Open Matte] WEB-DL 1080p Latino descargar gratis, descargar The Purge: Election Year (2016) [Open Matte] WEB-DL 1080p Latino pelicula latino, The Purge: Election Year (2016) [Open Matte] WEB-DL 1080p Latino 1 link mega, The Purge: Election Year (2016) [Open Matte] WEB-DL 1080p Latino 1 link google drive, The Purge: Election Year (2016) [Open Matte] WEB-DL 1080p Latino hd 1080p latino.
Comentarios 0