×

¿Problemas para descargar con Mozilla, EDGE? Deshabilita la opción "Abrir vinculos en una pestaña nueva" tal como lo muestra ésta imagen.

12 Horas Para Sobrevivir (2014) REMUX 1080p Latino

163 vistas

Información de 12 Horas Para Sobrevivir (2014) REMUX 1080p Latino

Datos de la película

  • Calidad: Full 1080p
  • Audio: Español Latino DTS 5.1 BLURAY - Ingles DTS-HD 5.1 BLURAY
  • Subtitulos: Español Latino PGS - Ingles PGS
  • Resolución: 1920x1080p
  • Formato: MKV
  • Codec: H.264
  • Encoder: CinefiloCool
  • Mediainfo: Clic para Mostrar Datos Ver
  • The Purge 12 Horas Para Sobrevivir (2014) REMUX 1080p Latino-CMHDD.mkv
    Format                      : Matroska
    Format version              : Version 4
    File size                   : 24.7 GiB
    Duration                    : 1 h 43 min
    Overall bit rate mode       : Variable
    Overall bit rate            : 34.1 Mb/s
    Movie name                  : The Purge Anarchy (2014) CinemaniaHDD.Net
    Encoded date                : UTC 2021-09-24 18:12:28
    Writing application         : mkvmerge v56.1.0 ('My Friend') 64-bit
    Writing library             : libebml v1.4.2 + libmatroska v1.6.4
    Attachments                 : CINEMANIAHD.png

    Video
    ID                          : 1
    Format                      : AVC
    Format/Info                 : Advanced Video Codec
    Format profile              : High@L4.1
    Format settings             : CABAC / 4 Ref Frames
    Format settings, CABAC      : Yes
    Format settings, Reference  : 4 frames
    Format settings, GOP        : M=3, N=12
    Codec ID                    : V_MPEG4/ISO/AVC
    Duration                    : 1 h 43 min
    Bit rate mode               : Variable
    Bit rate                    : 29.7 Mb/s
    Maximum bit rate            : 32.0 Mb/s
    Width                       : 1 920 pixels
    Height                      : 1 080 pixels
    Display aspect ratio        : 16:9
    Frame rate mode             : Constant
    Frame rate                  : 23.976 (24000/1001) FPS
    Color space                 : YUV
    Chroma subsampling          : 4:2:0
    Bit depth                   : 8 bits
    Scan type                   : Progressive
    Bits/(Pixel*Frame)          : 0.598
    Stream size                 : 21.5 GiB (87%)
    Title                       : REMUX HD1080p [CinemaniaHDD]
    Language                    : English
    Default                     : Yes
    Forced                      : Yes

    Audio #1
    ID                          : 2
    Format                      : DTS
    Format/Info                 : Digital Theater Systems
    Codec ID                    : A_DTS
    Duration                    : 1 h 43 min
    Bit rate mode               : Constant
    Bit rate                    : 768 kb/s
    Channel(s)                  : 6 channels
    Channel layout              : C L R Ls Rs LFE
    Sampling rate               : 48.0 kHz
    Frame rate                  : 93.750 FPS (512 SPF)
    Bit depth                   : 24 bits
    Compression mode            : Lossy
    Stream size                 : 569 MiB (2%)
    Title                       : Español Latino [CinemaniaHDD]
    Language                    : Spanish
    Default                     : Yes
    Forced                      : Yes

    Audio #2
    ID                          : 3
    Format                      : DTS XLL
    Format/Info                 : Digital Theater Systems
    Commercial name             : DTS-HD Master Audio
    Codec ID                    : A_DTS
    Duration                    : 1 h 43 min
    Bit rate mode               : Variable
    Bit rate                    : 3 556 kb/s
    Channel(s)                  : 6 channels
    Channel layout              : C L R Ls Rs LFE
    Sampling rate               : 48.0 kHz
    Frame rate                  : 93.750 FPS (512 SPF)
    Bit depth                   : 24 bits
    Compression mode            : Lossless
    Stream size                 : 2.57 GiB (10%)
    Title                       : Ingles [CinemaniaHDD]
    Language                    : English
    Default                     : No
    Forced                      : No

    Text #1
    ID                          : 4
    Format                      : PGS
    Muxing mode                 : zlib
    Codec ID                    : S_HDMV/PGS
    Codec ID/Info               : Picture based subtitle format used on BDs/HD-DVDs
    Duration                    : 1 h 35 min
    Bit rate                    : 30.1 kb/s
    Count of elements           : 2401
    Stream size                 : 20.6 MiB (0%)
    Title                       : Español-PGS [CinemaniaHDD]
    Language                    : Spanish
    Default                     : No
    Forced                      : No

    Text #2
    ID                          : 5
    Format                      : PGS
    Muxing mode                 : zlib
    Codec ID                    : S_HDMV/PGS
    Codec ID/Info               : Picture based subtitle format used on BDs/HD-DVDs
    Duration                    : 1 h 34 min
    Bit rate                    : 42.2 kb/s
    Count of elements           : 2961
    Stream size                 : 28.7 MiB (0%)
    Title                       : Ingles-PGS [CinemaniaHDD]
    Language                    : English
    Default                     : No
    Forced                      : No

    Text #3
    ID                          : 6
    Format                      : UTF-8
    Codec ID                    : S_TEXT/UTF8
    Codec ID/Info               : UTF-8 Plain Text
    Duration                    : 1 h 30 min
    Bit rate                    : 0 b/s
    Count of elements           : 12
    Stream size                 : 280 Bytes (0%)
    Title                       : Forzados-SRT [CinemaniaHDD]
    Language                    : Spanish
    Default                     : Yes
    Forced                      : Yes

    Text #4
    ID                          : 7
    Format                      : UTF-8
    Codec ID                    : S_TEXT/UTF8
    Codec ID/Info               : UTF-8 Plain Text
    Duration                    : 1 h 35 min
    Bit rate                    : 49 b/s
    Count of elements           : 1200
    Stream size                 : 34.7 KiB (0%)
    Title                       : Español-SRT [CinemaniaHDD]
    Language                    : Spanish
    Default                     : No
    Forced                      : No

    Menu
    00:00:00.000                : Chapter 01
    00:05:14.523                : Chapter 02
    00:09:49.839                : Chapter 03
    00:14:37.293                : Chapter 04
    00:18:32.945                : Chapter 05
    00:23:17.229                : Chapter 06
    00:31:21.797                : Chapter 07
    00:36:28.937                : Chapter 08
    00:41:18.559                : Chapter 09
    00:47:13.831                : Chapter 10
    00:51:38.762                : Chapter 11
    00:57:27.944                : Chapter 12
    01:01:48.663                : Chapter 13
    01:06:49.214                : Chapter 14
    01:10:11.916                : Chapter 15
    01:15:45.750                : Chapter 16
    01:21:14.495                : Chapter 17
    01:26:41.154                : Chapter 18
    01:31:17.972                : Chapter 19
    01:36:47.051                : Chapter 20

  • Peso: 24.7 GiB

Sinopsis

Descargar 12 Horas Para Sobrevivir (2014) REMUX 1080p Latino. Secuela de la película The Purge. La noche de las bestias (2013). En la película original, el gobierno de Estados Unidos permite que, durante una noche, cualquier acto vandálico sea legal. De esta forma intentan reducir el número de criminales, ya que las cárceles del país se encuentran saturadas. La idea surge de la teoría de que todo ser humano tiene maldad en su interior, maldad que en algún momento saldrá a la luz. En esta situación, las personas que tienen dinero tienen más posibilidades que las pobres, ya que estas últimas no tienen los medios necesarios para defenderse de los que les quieran hacer daño. Así, una pregunta sale a la luz: ¿Cómo poder sobrevivir a los criminales sin convertirse en uno?

Disponible Solo Para VIP!!! 😀

Ficha técnica

Video trailer de la película

Enlaces de descarga

Rip de Bluray

Descargar 12 Horas Para Sobrevivir (2014) REMUX 1080p Latino


Aportes de DPeliculasHDmega la pass es:dpeliculashdmega.org Aportes de CinemaniaHD la pass es:cinemaniahdd.com
Guardado en : Remux , Suspenso , Terror

Películas relacionadas

  • Paradise Highway (2022) HD 1080p Latino

    Paradise Highway (2022) HD 1080p Latino

    2022
    Paradise Highway (2022) HD 1080p Latino

    1h 55m 2022

    Descargar Paradise Highway (2022) HD 1080p Latino. Un camionero se ha visto obligado a pasar de contrabando...

    Director: Anna Gutto

    Género: Crimen

    Actores: Xavier Scott Evans

  • Paradise Highway (2022) PLACEBO Full HD 1080p Latino

    Paradise Highway (2022) PLACEBO Full HD 1080p Latino

    2022
    Paradise Highway (2022) PLACEBO Full HD 1080p Latino

    1h 55m 2022

    Descargar Paradise Highway (2022) PLACEBO Full HD 1080p Latino. Un camionero se ha visto obligado a pasar...

    Director: Anna Gutto

    Género: Crimen

    Actores: Xavier Scott Evans

  • Paradise Highway (2022) REMUX 1080p Latino

    Paradise Highway (2022) REMUX 1080p Latino

    2022
    Paradise Highway (2022) REMUX 1080p Latino

    1h 55m 2022

    Descargar Paradise Highway (2022) REMUX 1080p Latino. Un camionero se ha visto obligado a pasar de contrabando...

    Director: Anna Gutto

    Género: Crimen

    Actores: Xavier Scott Evans

  • M3GAN (2023) AMZN WEB-DL 4K UHD HDR Latino

    M3GAN (2023) AMZN WEB-DL 4K UHD HDR Latino

    2022
    M3GAN (2023) AMZN WEB-DL 4K UHD HDR Latino

    1h 42m 2022

    Descargar M3GAN (2023) AMZN WEB-DL 4K UHD HDR Latino. Cuando Gemma se convierte en la cuidadora de su...

    Director: Stephen W. Moore

    Género: 4K HDR

    Actores: Violet McGraw

descargar 12 Horas Para Sobrevivir (2014) REMUX 1080p Latino Full 1080p 1080p gratis, 12 Horas Para Sobrevivir (2014) REMUX 1080p Latino Full 1080p mega 1 link, 12 Horas Para Sobrevivir (2014) REMUX 1080p Latino Full 1080p pelicula completa, descargar 12 Horas Para Sobrevivir (2014) REMUX 1080p Latino Full 1080p gratis en mega.

12 Horas Para Sobrevivir (2014) REMUX 1080p Latino pelicula full hd, 12 Horas Para Sobrevivir (2014) REMUX 1080p Latino mega latino, 12 Horas Para Sobrevivir (2014) REMUX 1080p Latino 4k latino, 12 Horas Para Sobrevivir (2014) REMUX 1080p Latino pelicula completa, 12 Horas Para Sobrevivir (2014) REMUX 1080p Latino descargar gratis, descargar 12 Horas Para Sobrevivir (2014) REMUX 1080p Latino pelicula latino, 12 Horas Para Sobrevivir (2014) REMUX 1080p Latino 1 link mega, 12 Horas Para Sobrevivir (2014) REMUX 1080p Latino 1 link google drive, 12 Horas Para Sobrevivir (2014) REMUX 1080p Latino hd 1080p latino.
Comentarios 0