×

¿Problemas para descargar con Mozilla, EDGE? Deshabilita la opción "Abrir vinculos en una pestaña nueva" tal como lo muestra ésta imagen.

The Purge: Anarchy (2014) [Open Matte] WEB-DL 1080p Latino

24 vistas

Información de The Purge: Anarchy (2014) [Open Matte] WEB-DL 1080p Latino

Datos de la película

  • Calidad: 1080p
  • Audio: Español Latino AC3 2.0 WEB-DL - Ingles AC3 5.1 WEB-DL
  • Subtitulos: Español Latino SRT- FORZADOS SRT
  • Resolución: 1920x1080
  • Formato: MKV
  • Codec: H.264
  • Encoder: cinemaniahdd
  • Mediainfo: Clic para Mostrar Datos Ver
  • The Purge. Anarchy (2014) [OpenMatte] WEB-DL 1080p Latino [CNMNHDD].mkv Format                      : Matroska Format version              : Version 4 File size                   : 5.60 GiB Duration                    : 1 h 43 min Overall bit rate mode       : Variable Overall bit rate            : 7 742 kb/s Movie name                  : The Purge. Anarchy (2014) OpenMatte [1080p] - CinemaniaHDD.Net Encoded date                : UTC 2023-01-14 21:35:08 Writing application         : mkvmerge v56.1.0 ('My Friend') 64-bit Writing library             : libebml v1.4.2 + libmatroska v1.6.4 Video ID                          : 1 Format                      : AVC Format/Info                 : Advanced Video Codec Format profile              : High@L4 Format settings             : CABAC / 4 Ref Frames Format settings, CABAC      : Yes Format settings, Reference  : 4 frames Codec ID                    : V_MPEG4/ISO/AVC Duration                    : 1 h 43 min Bit rate mode               : Variable Bit rate                    : 7 358 kb/s Maximum bit rate            : 12.7 Mb/s Width                       : 1 920 pixels Height                      : 1 080 pixels Display aspect ratio        : 16:9 Frame rate mode             : Constant Frame rate                  : 23.976 (24000/1001) FPS Color space                 : YUV Chroma subsampling          : 4:2:0 Bit depth                   : 8 bits Scan type                   : Progressive Bits/(Pixel*Frame)          : 0.148 Stream size                 : 5.32 GiB (95%) Title                       : CinemaniaHDD Default                     : Yes Forced                      : No Color range                 : Limited Color primaries             : BT.709 Transfer characteristics    : BT.709 Matrix coefficients         : BT.709 Audio #1 ID                          : 2 Format                      : AAC LC Format/Info                 : Advanced Audio Codec Low Complexity Codec ID                    : A_AAC-2 Duration                    : 1 h 43 min Bit rate                    : 125 kb/s Channel(s)                  : 2 channels Channel layout              : L R Sampling rate               : 48.0 kHz Frame rate                  : 46.875 FPS (1024 SPF) Compression mode            : Lossy Stream size                 : 92.8 MiB (2%) Title                       : Español latino [CinemaniaHDD] Language                    : Spanish Default                     : Yes Forced                      : No Audio #2 ID                          : 3 Format                      : E-AC-3 Format/Info                 : Enhanced AC-3 Commercial name             : Dolby Digital Plus Codec ID                    : A_EAC3 Duration                    : 1 h 43 min Bit rate mode               : Constant Bit rate                    : 256 kb/s Channel(s)                  : 6 channels Channel layout              : L R C LFE Ls Rs Sampling rate               : 48.0 kHz Frame rate                  : 31.250 FPS (1536 SPF) Compression mode            : Lossy Stream size                 : 189 MiB (3%) Title                       : Inglés [CinemaniaHDD] Language                    : English Service kind                : Complete Main Default                     : No Forced                      : No Text #1 ID                          : 4 Format                      : UTF-8 Codec ID                    : S_TEXT/UTF8 Codec ID/Info               : UTF-8 Plain Text Duration                    : 1 h 35 min Bit rate                    : 0 b/s Count of elements           : 13 Stream size                 : 248 Bytes (0%) Title                       : Forzados [CinemaniaHDD] Language                    : Spanish Default                     : Yes Forced                      : Yes Text #2 ID                          : 5 Format                      : UTF-8 Codec ID                    : S_TEXT/UTF8 Codec ID/Info               : UTF-8 Plain Text Duration                    : 1 h 35 min Bit rate                    : 47 b/s Count of elements           : 1229 Stream size                 : 33.2 KiB (0%) Title                       : Español latino [CinemaniaHDD] Language                    : Spanish Default                     : No Forced                      : No  
  • Peso: 5.60 GiB

Sinopsis

Secuela de la película The Purge. La noche de las bestias (2013). En la película original, el gobierno de Estados Unidos permite que, durante una noche, cualquier acto vandálico sea legal. De esta forma intentan reducir el número de criminales, ya que las cárceles del país se encuentran saturadas. La idea surge de la teoría de que todo ser humano tiene maldad en su interior, maldad que en algún momento saldrá a la luz. En esta situación, las personas que tienen dinero tienen más posibilidades que las pobres, ya que estas últimas no tienen los medios necesarios para defenderse de los que les quieran hacer daño. Así, una pregunta sale a la luz: ¿Cómo poder sobrevivir a los criminales sin convertirse en uno?

Ficha técnica

Video trailer de la película

Enlaces de descarga

Rip de Bluray

Descargar The Purge: Anarchy (2014) [Open Matte] WEB-DL 1080p Latino




Aportes de DPeliculasHDmega la pass es:dpeliculashdmega.org Aportes de CinemaniaHD la pass es:cinemaniahdd.com
Guardado en : OPEN MATTE , Suspenso , Terror

Películas relacionadas

  • Juego de espías (2001) 1080p Latino

    Juego de espías (2001) 1080p Latino

    2001
    Juego de espías (2001) 1080p Latino

    2h 6m 2001

    Descargar Juego de espías (2001) 1080p Latino. Corre el año 1991, y al veterano agente de la CIA Nathan...

    Director: Tony Scott

    Género: Acción

    Actores: Zsolt Zágoni

  • Juego de espías (2001) Full HD 1080p Latino

    Juego de espías (2001) Full HD 1080p Latino

    2001
    Juego de espías (2001) Full HD 1080p Latino

    2h 6m 2001

    Descargar Juego de espías (2001) Full HD 1080p Latino. Corre el año 1991, y al veterano agente de la...

    Director: Tony Scott

    Género: Acción

    Actores: Zsolt Zágoni

  • Juego de espías (2001) REMUX 1080p Latino

    Juego de espías (2001) REMUX 1080p Latino

    2001
    Juego de espías (2001) REMUX 1080p Latino

    1h 55m 2001

    Descargar Juego de espías (2001) REMUX 1080p Latino. El día de su jubilación, el veterano agente de...

    Director: Tony Scott

    Género: Acción

    Actores: Zsolt Zágoni

  • Transfusion (2023) WEB-DL 4K UHD HDR Latino

    Transfusion (2023) WEB-DL 4K UHD HDR Latino

    2023
    Transfusion (2023) WEB-DL 4K UHD HDR Latino

    1h 45m 2023

    Descargar Transfusion (2023) WEB-DL 4K UHD HDR Latino. Un antiguo agente de las Fuerzas Especiales se...

    Director: Matt Nable

    Género: 4K HDR

    Actores: Trystan Go

  • Transfusion (2023) WEB-DL 1080p Latino

    Transfusion (2023) WEB-DL 1080p Latino

    2023
    Transfusion (2023) WEB-DL 1080p Latino

    1h 45m 2023

    Descargar Transfusion (2023) WEB-DL 1080p Latino. Un antiguo agente de las Fuerzas Especiales se ve empujado...

    Director: Matt Nable

    Género: Crimen

    Actores: Trystan Go

descargar The Purge: Anarchy (2014) [Open Matte] WEB-DL 1080p Latino 1080p 1080p gratis, The Purge: Anarchy (2014) [Open Matte] WEB-DL 1080p Latino 1080p mega 1 link, The Purge: Anarchy (2014) [Open Matte] WEB-DL 1080p Latino 1080p pelicula completa, descargar The Purge: Anarchy (2014) [Open Matte] WEB-DL 1080p Latino 1080p gratis en mega.

The Purge: Anarchy (2014) [Open Matte] WEB-DL 1080p Latino pelicula full hd, The Purge: Anarchy (2014) [Open Matte] WEB-DL 1080p Latino mega latino, The Purge: Anarchy (2014) [Open Matte] WEB-DL 1080p Latino 4k latino, The Purge: Anarchy (2014) [Open Matte] WEB-DL 1080p Latino pelicula completa, The Purge: Anarchy (2014) [Open Matte] WEB-DL 1080p Latino descargar gratis, descargar The Purge: Anarchy (2014) [Open Matte] WEB-DL 1080p Latino pelicula latino, The Purge: Anarchy (2014) [Open Matte] WEB-DL 1080p Latino 1 link mega, The Purge: Anarchy (2014) [Open Matte] WEB-DL 1080p Latino 1 link google drive, The Purge: Anarchy (2014) [Open Matte] WEB-DL 1080p Latino hd 1080p latino.
Comentarios 0