×

¿Problemas para descargar con Mozilla, EDGE? Deshabilita la opción "Abrir vinculos en una pestaña nueva" tal como lo muestra ésta imagen.

The Purge (2013) [Open Matte] WEB-DL 1080p Latino

35 vistas

Información de The Purge (2013) [Open Matte] WEB-DL 1080p Latino

Datos de la película

  • Calidad: 1080p
  • Audio: Español Latino AC3 2.0 WEB-DL - Ingles AC3 5.1 WEB-DL
  • Subtitulos: Español Latino SRT- FORZADOS SRT
  • Resolución: 1920x1080
  • Formato: MKV
  • Codec: H.264
  • Encoder: cinemaniahdd
  • Mediainfo: Clic para Mostrar Datos Ver
  • The Purge (2013) [OpenMatte] WEB-DL 1080p Latino [CNMNHDD].mkv Format                      : Matroska Format version              : Version 4 File size                   : 4.53 GiB Duration                    : 1 h 25 min Overall bit rate mode       : Variable Overall bit rate            : 7 607 kb/s Movie name                  : The Purge (2013) OpenMatte [1080p] - CinemaniaHDD.Net Encoded date                : UTC 2023-01-14 21:34:16 Writing application         : mkvmerge v56.1.0 ('My Friend') 64-bit Writing library             : libebml v1.4.2 + libmatroska v1.6.4 Video ID                          : 1 Format                      : AVC Format/Info                 : Advanced Video Codec Format profile              : High@L4 Format settings             : CABAC / 4 Ref Frames Format settings, CABAC      : Yes Format settings, Reference  : 4 frames Codec ID                    : V_MPEG4/ISO/AVC Duration                    : 1 h 25 min Bit rate mode               : Variable Bit rate                    : 7 227 kb/s Maximum bit rate            : 12.7 Mb/s Width                       : 1 920 pixels Height                      : 1 080 pixels Display aspect ratio        : 16:9 Frame rate mode             : Constant Frame rate                  : 23.976 (24000/1001) FPS Color space                 : YUV Chroma subsampling          : 4:2:0 Bit depth                   : 8 bits Scan type                   : Progressive Bits/(Pixel*Frame)          : 0.145 Stream size                 : 4.30 GiB (95%) Title                       : CinemaniaHDD Default                     : Yes Forced                      : No Color range                 : Limited Color primaries             : BT.709 Transfer characteristics    : BT.709 Matrix coefficients         : BT.709 Audio #1 ID                          : 2 Format                      : AAC LC Format/Info                 : Advanced Audio Codec Low Complexity Codec ID                    : A_AAC-2 Duration                    : 1 h 25 min Bit rate                    : 125 kb/s Channel(s)                  : 2 channels Channel layout              : L R Sampling rate               : 48.0 kHz Frame rate                  : 46.875 FPS (1024 SPF) Compression mode            : Lossy Stream size                 : 76.4 MiB (2%) Title                       : Español latino [CinemaniaHDD] Language                    : Spanish Default                     : Yes Forced                      : No Audio #2 ID                          : 3 Format                      : E-AC-3 Format/Info                 : Enhanced AC-3 Commercial name             : Dolby Digital Plus Codec ID                    : A_EAC3 Duration                    : 1 h 25 min Bit rate mode               : Constant Bit rate                    : 256 kb/s Channel(s)                  : 6 channels Channel layout              : L R C LFE Ls Rs Sampling rate               : 48.0 kHz Frame rate                  : 31.250 FPS (1536 SPF) Compression mode            : Lossy Stream size                 : 156 MiB (3%) Title                       : Inglés [CinemaniaHDD] Language                    : English Service kind                : Complete Main Default                     : No Forced                      : No Text #1 ID                          : 4 Format                      : UTF-8 Codec ID                    : S_TEXT/UTF8 Codec ID/Info               : UTF-8 Plain Text Duration                    : 13 min 26 s Bit rate                    : 0 b/s Count of elements           : 3 Stream size                 : 56.0 Bytes (0%) Title                       : Forzados [CinemaniaHDD] Language                    : Spanish Default                     : Yes Forced                      : Yes Text #2 ID                          : 5 Format                      : UTF-8 Codec ID                    : S_TEXT/UTF8 Codec ID/Info               : UTF-8 Plain Text Duration                    : 1 h 19 min Bit rate                    : 48 b/s Count of elements           : 812 Stream size                 : 28.2 KiB (0%) Title                       : Español latino [CinemaniaHDD] Language                    : Spanish Default                     : No Forced                      : No  
  • Peso: 4.53 GiB

Sinopsis

Año 2022. En una futura sociedad distópica, el régimen político vigente, llamado Nueva Fundación de los padres de América, ha decidido como medida catárquica implantar la «purga anual», una regla por la que una noche de cada año se puede cometer cualquier crimen, incluyendo asesinatos y violaciones, sin tener que hacer frente a las consecuencias ni responder ante la justicia. Así, cuando las viciadas nuevas reglas del mundo exterior amenacen su casa, los miembros de una familia verán su vida en peligro, en el transcurso de una terrorífica noche durante la cual todos se verán puestos a prueba para ver hasta dónde son capaces de llegar para protegerse.

Ficha técnica

Video trailer de la película

Enlaces de descarga

Rip de Bluray

Descargar The Purge (2013) [Open Matte] WEB-DL 1080p Latino




Aportes de DPeliculasHDmega la pass es:dpeliculashdmega.org Aportes de CinemaniaHD la pass es:cinemaniahdd.com

Películas relacionadas

descargar The Purge (2013) [Open Matte] WEB-DL 1080p Latino 1080p 1080p gratis, The Purge (2013) [Open Matte] WEB-DL 1080p Latino 1080p mega 1 link, The Purge (2013) [Open Matte] WEB-DL 1080p Latino 1080p pelicula completa, descargar The Purge (2013) [Open Matte] WEB-DL 1080p Latino 1080p gratis en mega.

The Purge (2013) [Open Matte] WEB-DL 1080p Latino pelicula full hd, The Purge (2013) [Open Matte] WEB-DL 1080p Latino mega latino, The Purge (2013) [Open Matte] WEB-DL 1080p Latino 4k latino, The Purge (2013) [Open Matte] WEB-DL 1080p Latino pelicula completa, The Purge (2013) [Open Matte] WEB-DL 1080p Latino descargar gratis, descargar The Purge (2013) [Open Matte] WEB-DL 1080p Latino pelicula latino, The Purge (2013) [Open Matte] WEB-DL 1080p Latino 1 link mega, The Purge (2013) [Open Matte] WEB-DL 1080p Latino 1 link google drive, The Purge (2013) [Open Matte] WEB-DL 1080p Latino hd 1080p latino.
Comentarios 0