×

¿Problemas para descargar con Mozilla, EDGE? Deshabilita la opción "Abrir vinculos en una pestaña nueva" tal como lo muestra ésta imagen.

The Punisher (2004) REMUX 4K HDR Latino – CMHDD

259 vistas

Información de The Punisher (2004) REMUX 4K HDR Latino – CMHDD

Datos de la película

  • Calidad: 4K HDR
  • Audio: Español Latino AC3 5.1 BLURAY - Ingles AC3 5.1 BLURAY
  • Subtitulos: Español Latino PGS
  • Resolución: 3840x2160p
  • Formato: MKV
  • Codec: H.264
  • Encoder: Dracarys
  • Mediainfo: Clic para Mostrar Datos Ver
  • Format                      : Matroska
    Format version              : Version 4
    File size                   : 62.3 GiB
    Duration                    : 2 h 3 min
    Overall bit rate mode       : Variable
    Overall bit rate            : 72.2 Mb/s
    Movie name                  : The Punisher (2004) REMUX 4K HDR Latino - CMHDD
    Encoded date                : UTC 2023-03-05 00:22:08
    Writing application         : mkvmerge v47.0.0 ('Black Flag') 64-bit
    Writing library             : libebml v1.3.10 + libmatroska v1.5.2
    Cover                       : Yes
    Attachments                 : cover.jpg

    Video
    ID                          : 1
    ID in the original source m : 4113 (0x1011)
    Format                      : HEVC
    Format/Info                 : High Efficiency Video Coding
    Format profile              : Main 10@L5.1@High
    HDR format                  : SMPTE ST 2086, HDR10 compatible
    Codec ID                    : V_MPEGH/ISO/HEVC
    Duration                    : 2 h 3 min
    Bit rate                    : 66.7 Mb/s
    Width                       : 3 840 pixels
    Height                      : 2 160 pixels
    Display aspect ratio        : 16:9
    Frame rate mode             : Constant
    Frame rate                  : 23.976 (24000/1001) FPS
    Color space                 : YUV
    Chroma subsampling          : 4:2:0 (Type 2)
    Bit depth                   : 10 bits
    Bits/(Pixel*Frame)          : 0.335
    Stream size                 : 57.6 GiB (92%)
    Default                     : Yes
    Forced                      : No
    Color range                 : Limited
    Color primaries             : BT.2020
    Transfer characteristics    : PQ
    Matrix coefficients         : BT.2020 non-constant
    Mastering display color pri : Display P3
    Mastering display luminance : min: 0.0001 cd/m2, max: 1000 cd/m2
    Maximum Content Light Level : 1000 cd/m2
    Maximum Frame-Average Light : 958 cd/m2
    Original source medium      : Blu-ray

    Audio #1
    ID                          : 2
    ID in the original source m : 4352 (0x1100)
    Format                      : MLP FBA 16-ch
    Format/Info                 : Meridian Lossless Packing FBA with 16-channel presentation
    Commercial name             : Dolby TrueHD with Dolby Atmos
    Codec ID                    : A_TRUEHD
    Duration                    : 2 h 3 min
    Bit rate mode               : Variable
    Bit rate                    : 4 353 kb/s
    Maximum bit rate            : 7 194 kb/s
    Channel(s)                  : 8 channels
    Channel layout              : L R C LFE Ls Rs Lb Rb
    Sampling rate               : 48.0 kHz
    Frame rate                  : 1 200.000 FPS (40 SPF)
    Compression mode            : Lossless
    Stream size                 : 3.76 GiB (6%)
    Language                    : English
    Default                     : No
    Forced                      : No
    Original source medium      : Blu-ray
    Number of dynamic objects   : 15
    Bed channel count           : 1 channel
    Bed channel configuration   : LFE

    Audio #2
    ID                          : 3
    ID in the original source m : 4352 (0x1100)
    Format                      : AC-3
    Format/Info                 : Audio Coding 3
    Commercial name             : Dolby Digital
    Format settings             : Dolby Surround EX
    Codec ID                    : A_AC3
    Duration                    : 2 h 3 min
    Bit rate mode               : Constant
    Bit rate                    : 640 kb/s
    Channel(s)                  : 6 channels
    Channel layout              : L R C LFE Ls Rs
    Sampling rate               : 48.0 kHz
    Frame rate                  : 31.250 FPS (1536 SPF)
    Compression mode            : Lossy
    Stream size                 : 566 MiB (1%)
    Language                    : English
    Service kind                : Complete Main
    Default                     : No
    Forced                      : No
    Original source medium      : Blu-ray

    Audio #3
    ID                          : 4
    ID in the original source m : 4353 (0x1101)
    Format                      : AC-3
    Format/Info                 : Audio Coding 3
    Commercial name             : Dolby Digital
    Codec ID                    : A_AC3
    Duration                    : 2 h 3 min
    Bit rate mode               : Constant
    Bit rate                    : 448 kb/s
    Channel(s)                  : 6 channels
    Channel layout              : L R C LFE Ls Rs
    Sampling rate               : 48.0 kHz
    Frame rate                  : 31.250 FPS (1536 SPF)
    Compression mode            : Lossy
    Delay relative to video     : 15 ms
    Stream size                 : 396 MiB (1%)
    Language                    : Spanish
    Service kind                : Complete Main
    Default                     : Yes
    Forced                      : No
    Original source medium      : Blu-ray

    Text
    ID                          : 5
    ID in the original source m : 4770 (0x12A2)
    Format                      : PGS
    Muxing mode                 : zlib
    Codec ID                    : S_HDMV/PGS
    Codec ID/Info               : Picture based subtitle format used on BDs/HD-DVDs
    Duration                    : 1 h 53 min
    Bit rate                    : 22.6 kb/s
    Frame rate                  : 0.294 FPS
    Count of elements           : 2008
    Stream size                 : 18.4 MiB (0%)
    Language                    : Spanish
    Default                     : No
    Forced                      : No
    Original source medium      : Blu-ray

    Menu
    00:00:00.000                : en:Capítulo 01
    00:06:19.170                : en:Capítulo 02
    00:11:01.827                : en:Capítulo 03
    00:19:25.622                : en:Capítulo 04
    00:24:11.783                : en:Capítulo 05
    00:35:23.830                : en:Capítulo 06
    00:43:16.010                : en:Capítulo 07
    00:48:33.869                : en:Capítulo 08
    00:55:21.276                : en:Capítulo 09
    01:07:20.453                : en:Capítulo 10
    01:14:36.221                : en:Capítulo 11
    01:20:29.157                : en:Capítulo 12
    01:27:54.102                : en:Capítulo 13
    01:34:19.904                : en:Capítulo 14

  • Peso: 62.3 GiB

Sinopsis

Frank Castle (Thomas Jane) es un agente secreto del FBI que hasta el momento ha logrado una carrera intachable. Frank también es un ex operativo de las Fuerzas Especiales. Finalmente sale del campo de batalla para trabajar en una oficina y así poder tener una vida normal con su esposa e hijo. Será entonces cuando el mundo de Frank se viene abajo por el peor temor que siempre tuvo: Su familia es ejecutada como repercusión de su último trabajo. Ahora Castle busca castigar a los asesinos, para encontrar al final lo que menos esperaba: La redención.

Ficha técnica

Video trailer de la película

Enlaces de descarga

Rip de Bluray

Descargar The Punisher (2004) REMUX 4K HDR Latino – CMHDD


Aportes de DPeliculasHDmega la pass es:dpeliculashdmega.org Aportes de CinemaniaHD la pass es:cinemaniahdd.com Aportes recientes:cinemaniahdd.net
Guardado en : Acción , Crimen , Drama

Películas relacionadas

descargar The Punisher (2004) REMUX 4K HDR Latino – CMHDD 4K HDR 1080p gratis, The Punisher (2004) REMUX 4K HDR Latino – CMHDD 4K HDR mega 1 link, The Punisher (2004) REMUX 4K HDR Latino – CMHDD 4K HDR pelicula completa, descargar The Punisher (2004) REMUX 4K HDR Latino – CMHDD 4K HDR gratis en mega.

The Punisher (2004) REMUX 4K HDR Latino – CMHDD pelicula full hd, The Punisher (2004) REMUX 4K HDR Latino – CMHDD mega latino, The Punisher (2004) REMUX 4K HDR Latino – CMHDD 4k latino, The Punisher (2004) REMUX 4K HDR Latino – CMHDD pelicula completa, The Punisher (2004) REMUX 4K HDR Latino – CMHDD descargar gratis, descargar The Punisher (2004) REMUX 4K HDR Latino – CMHDD pelicula latino, The Punisher (2004) REMUX 4K HDR Latino – CMHDD 1 link mega, The Punisher (2004) REMUX 4K HDR Latino – CMHDD 1 link google drive, The Punisher (2004) REMUX 4K HDR Latino – CMHDD hd 1080p latino.
Comentarios 0