×

¿Problemas para descargar con Mozilla, EDGE? Deshabilita la opción "Abrir vinculos en una pestaña nueva" tal como lo muestra ésta imagen.

The Public (2018) PLACEBO Full HD 1080p Latino

915 vistas

Información de The Public (2018) PLACEBO Full HD 1080p Latino

Datos de la película

  • Calidad: Full 1080p
  • Audio: Español Latino AC3 2.0 DVD - Ingles DTS 5.1 BLURAY
  • Subtitulos: Español Latino PGS - Ingles PGS
  • Resolución: 1920x1080p
  • Formato: MKV
  • Codec: H.264
  • Encoder: Melkor
  • Mediainfo: Clic para Mostrar Datos Ver
  • The Public (2018) Full HD 1080p Latino.mkv
    Format                      : Matroska
    Format version              : Version 4
    File size                   : 9.17 GiB
    Duration                    : 1 h 59 min
    Overall bit rate            : 11.0 Mb/s
    Movie name                  : The Public (2018) CinemaniaHDD.Net
    Encoded date                : UTC 2020-03-19 04:27:47
    Writing application         : mkvmerge v42.0.0 ('Overtime') 64-bit
    Writing library             : libebml v1.3.10 + libmatroska v1.5.2
    Attachments                 : CINEMANIAHD.png

    Video
    ID                          : 1
    Format                      : AVC
    Format/Info                 : Advanced Video Codec
    Format profile              : High@L4.1
    Format settings             : CABAC / 4 Ref Frames
    Format settings, CABAC      : Yes
    Format settings, ReFrames   : 4 frames
    Codec ID                    : V_MPEG4/ISO/AVC
    Duration                    : 1 h 59 min
    Bit rate                    : 9 186 kb/s
    Width                       : 1 920 pixels
    Height                      : 1 080 pixels
    Display aspect ratio        : 16:9
    Frame rate mode             : Constant
    Frame rate                  : 23.976 (24000/1001) FPS
    Color space                 : YUV
    Chroma subsampling          : 4:2:0
    Bit depth                   : 8 bits
    Scan type                   : Progressive
    Bits/(Pixel*Frame)          : 0.185
    Stream size                 : 7.67 GiB (84%)
    Title                       : Full HD1080p [CinemaniaHDD]
    Writing library             : x264 core 157 r2935 545de2f
    Encoding settings           : cabac=1 / ref=4 / deblock=1:0:0 / analyse=0x3:0x133 / me=tesa / subme=11 / psy=1 / psy_rd=1.00:0.00 / mixed_ref=1 / me_range=24 / chroma_me=1 / trellis=2 / 8x8dct=1 / cqm=0 / deadzone=21,11 / fast_pskip=0 / chroma_qp_offset=-2 / threads=34 / lookahead_threads=8 / sliced_threads=0 / nr=0 / decimate=1 / interlaced=0 / bluray_compat=0 / constrained_intra=0 / bframes=16 / b_pyramid=2 / b_adapt=2 / b_bias=0 / direct=3 / weightb=1 / open_gop=0 / weightp=2 / keyint=240 / keyint_min=24 / scenecut=40 / intra_refresh=0 / rc_lookahead=60 / rc=crf / mbtree=1 / crf=20.0 / qcomp=0.60 / qpmin=0 / qpmax=69 / qpstep=4 / vbv_maxrate=62500 / vbv_bufsize=78125 / crf_max=0.0 / nal_hrd=none / filler=0 / ip_ratio=1.40 / aq=1:1.00
    Default                     : Yes
    Forced                      : Yes
    Color range                 : Limited
    Color primaries             : BT.709
    Transfer characteristics    : BT.709
    Matrix coefficients         : BT.709

    Audio #1
    ID                          : 2
    Format                      : AC-3
    Format/Info                 : Audio Coding 3
    Commercial name             : Dolby Digital
    Codec ID                    : A_AC3
    Duration                    : 1 h 59 min
    Bit rate mode               : Constant
    Bit rate                    : 256 kb/s
    Channel(s)                  : 2 channels
    Channel layout              : L R
    Sampling rate               : 48.0 kHz
    Frame rate                  : 31.250 FPS (1536 SPF)
    Bit depth                   : 16 bits
    Compression mode            : Lossy
    Stream size                 : 219 MiB (2%)
    Title                       : Español Latino [CinemaniaHDD]
    Language                    : Spanish
    Service kind                : Complete Main
    Default                     : Yes
    Forced                      : Yes

    Audio #2
    ID                          : 3
    Format                      : DTS
    Format/Info                 : Digital Theater Systems
    Codec ID                    : A_DTS
    Duration                    : 1 h 59 min
    Bit rate mode               : Constant
    Bit rate                    : 1 509 kb/s
    Channel(s)                  : 6 channels
    Channel layout              : C L R Ls Rs LFE
    Sampling rate               : 48.0 kHz
    Frame rate                  : 93.750 FPS (512 SPF)
    Bit depth                   : 24 bits
    Compression mode            : Lossy
    Stream size                 : 1.26 GiB (14%)
    Title                       : Ingles [CinemaniaHDD]
    Language                    : English
    Default                     : No
    Forced                      : No

    Text #1
    ID                          : 4
    Format                      : PGS
    Muxing mode                 : zlib
    Codec ID                    : S_HDMV/PGS
    Codec ID/Info               : Picture based subtitle format used on BDs/HD-DVDs
    Duration                    : 1 h 58 min
    Bit rate                    : 41.6 kb/s
    Count of elements           : 3517
    Stream size                 : 35.2 MiB (0%)
    Title                       : Español-PGS [CinemaniaHDD]
    Language                    : Spanish
    Default                     : No
    Forced                      : No

    Text #2
    ID                          : 5
    Format                      : PGS
    Muxing mode                 : zlib
    Codec ID                    : S_HDMV/PGS
    Codec ID/Info               : Picture based subtitle format used on BDs/HD-DVDs
    Duration                    : 1 h 58 min
    Bit rate                    : 53.2 kb/s
    Count of elements           : 4113
    Stream size                 : 45.1 MiB (0%)
    Title                       : Ingles-PGS [CinemaniaHDD]
    Language                    : English
    Default                     : No
    Forced                      : No

    Text #3
    ID                          : 6
    Format                      : UTF-8
    Codec ID                    : S_TEXT/UTF8
    Codec ID/Info               : UTF-8 Plain Text
    Duration                    : 1 h 53 min
    Bit rate                    : 3 b/s
    Count of elements           : 74
    Stream size                 : 2.69 KiB (0%)
    Title                       : Forzados-SRT [CinemaniaHDD]
    Language                    : Spanish
    Default                     : Yes
    Forced                      : Yes

    Text #4
    ID                          : 7
    Format                      : UTF-8
    Codec ID                    : S_TEXT/UTF8
    Codec ID/Info               : UTF-8 Plain Text
    Duration                    : 1 h 53 min
    Bit rate                    : 70 b/s
    Count of elements           : 1756
    Stream size                 : 58.8 KiB (0%)
    Title                       : Español-SRT [CinemaniaHDD]
    Language                    : Spanish
    Default                     : No
    Forced                      : No

    Menu
    00:00:00.000                : en:Chapter 01
    00:07:19.481                : en:Chapter 02
    00:20:33.149                : en:Chapter 03
    00:30:44.009                : en:Chapter 04
    00:41:38.663                : en:Chapter 05
    00:48:34.453                : en:Chapter 06
    00:58:33.385                : en:Chapter 07
    01:08:04.831                : en:Chapter 08
    01:22:06.922                : en:Chapter 09
    01:30:37.057                : en:Chapter 10
    01:37:30.928                : en:Chapter 11
    01:44:10.202                : en:Chapter 12

  • Peso: 9.17 GiB

Sinopsis

Descargar The Public (2018) PLACEBO Full HD 1080p Latino. Una protesta en una biblioteca del centro de Cincinnati acaba convirtiéndose en un conflicto con la policía y en un espectáculo para los medios.

Ficha técnica

Video trailer de la película

Enlaces de descarga

Rip de Bluray

Descargar The Public (2018) PLACEBO Full HD 1080p Latino




Aportes de DPeliculasHDmega la pass es:dpeliculashdmega.org Aportes de CinemaniaHD la pass es:cinemaniahdd.com

Películas relacionadas

descargar The Public (2018) PLACEBO Full HD 1080p Latino Full 1080p 1080p gratis, The Public (2018) PLACEBO Full HD 1080p Latino Full 1080p mega 1 link, The Public (2018) PLACEBO Full HD 1080p Latino Full 1080p pelicula completa, descargar The Public (2018) PLACEBO Full HD 1080p Latino Full 1080p gratis en mega.

The Public (2018) PLACEBO Full HD 1080p Latino pelicula full hd, The Public (2018) PLACEBO Full HD 1080p Latino mega latino, The Public (2018) PLACEBO Full HD 1080p Latino 4k latino, The Public (2018) PLACEBO Full HD 1080p Latino pelicula completa, The Public (2018) PLACEBO Full HD 1080p Latino descargar gratis, descargar The Public (2018) PLACEBO Full HD 1080p Latino pelicula latino, The Public (2018) PLACEBO Full HD 1080p Latino 1 link mega, The Public (2018) PLACEBO Full HD 1080p Latino 1 link google drive, The Public (2018) PLACEBO Full HD 1080p Latino hd 1080p latino.
Comentarios 0