×

¿Problemas para descargar con Mozilla, EDGE? Deshabilita la opción "Abrir vinculos en una pestaña nueva" tal como lo muestra ésta imagen.

Entre la Razón y la Locura (2019) REMUX 1080p Latino

421 vistas

Información de Entre la Razón y la Locura (2019) REMUX 1080p Latino

Datos de la película

  • Calidad: Full 1080p
  • Audio: Español Latino AC3 2.0 DVD - Ingles DTS 5.1 BLURAY
  • Subtitulos: Español Latino SRT- FORZADOS SRT
  • Resolución: 1920x1080p
  • Formato: MKV
  • Codec: H.264
  • Encoder: CinefiloCool
  • Mediainfo: Clic para Mostrar Datos Ver
  • Entre la Razon y la Locura (2019) REMUX 1080p Latino-CMHDD.mkv
    Format                      : Matroska
    Format version              : Version 4
    File size                   : 26.7 GiB
    Duration                    : 2 h 4 min
    Overall bit rate mode       : Variable
    Overall bit rate            : 30.7 Mb/s
    Movie name                  : The Professor and the Madman (2019) CinemaniaHDD.Net
    Encoded date                : UTC 2019-10-21 15:34:56
    Writing application         : mkvmerge v38.0.0 ('The Silent Type') 64-bit
    Writing library             : libebml v1.3.9 + libmatroska v1.5.2
    Attachments                 : CINEMANIAHD.png

    Video
    ID                          : 1
    Format                      : AVC
    Format/Info                 : Advanced Video Codec
    Format profile              : High@L4.1
    Format settings             : CABAC / 4 Ref Frames
    Format settings, CABAC      : Yes
    Format settings, ReFrames   : 4 frames
    Codec ID                    : V_MPEG4/ISO/AVC
    Duration                    : 2 h 4 min
    Bit rate mode               : Constant
    Bit rate                    : 30.0 Mb/s
    Width                       : 1 920 pixels
    Height                      : 1 080 pixels
    Display aspect ratio        : 16:9
    Frame rate mode             : Constant
    Frame rate                  : 23.976 (24000/1001) FPS
    Standard                    : NTSC
    Color space                 : YUV
    Chroma subsampling          : 4:2:0
    Bit depth                   : 8 bits
    Scan type                   : Progressive
    Bits/(Pixel*Frame)          : 0.603
    Stream size                 : 24.9 GiB (93%)
    Title                       : Full HD1080p [REMUX]
    Default                     : Yes
    Forced                      : Yes
    Color range                 : Limited
    Color primaries             : BT.709
    Transfer characteristics    : BT.709
    Matrix coefficients         : BT.709

    Audio #1
    ID                          : 2
    Format                      : AC-3
    Format/Info                 : Audio Coding 3
    Commercial name             : Dolby Digital
    Codec ID                    : A_AC3
    Duration                    : 2 h 4 min
    Bit rate mode               : Constant
    Bit rate                    : 256 kb/s
    Channel(s)                  : 2 channels
    Channel layout              : L R
    Sampling rate               : 48.0 kHz
    Frame rate                  : 31.250 FPS (1536 SPF)
    Bit depth                   : 16 bits
    Compression mode            : Lossy
    Stream size                 : 228 MiB (1%)
    Title                       : AC3_2.0_DVD_Esp
    Language                    : Spanish
    Service kind                : Complete Main
    Default                     : Yes
    Forced                      : Yes

    Audio #2
    ID                          : 3
    Format                      : DTS XLL
    Format/Info                 : Digital Theater Systems
    Commercial name             : DTS-HD Master Audio
    Codec ID                    : A_DTS
    Duration                    : 2 h 4 min
    Bit rate mode               : Variable
    Bit rate                    : 1 853 kb/s
    Channel(s)                  : 6 channels
    Channel layout              : C L R Ls Rs LFE
    Sampling rate               : 48.0 kHz
    Frame rate                  : 93.750 FPS (512 SPF)
    Bit depth                   : 16 bits
    Compression mode            : Lossless
    Stream size                 : 1.61 GiB (6%)
    Title                       : DTS-HD_5.1_Bluray_Eng
    Language                    : English
    Default                     : No
    Forced                      : No

    Text #1
    ID                          : 4
    Format                      : UTF-8
    Codec ID                    : S_TEXT/UTF8
    Codec ID/Info               : UTF-8 Plain Text
    Duration                    : 1 h 58 min
    Bit rate                    : 1 b/s
    Count of elements           : 30
    Stream size                 : 1.27 KiB (0%)
    Title                       : Sub_Forzados
    Language                    : Spanish
    Default                     : Yes
    Forced                      : Yes

    Text #2
    ID                          : 5
    Format                      : UTF-8
    Codec ID                    : S_TEXT/UTF8
    Codec ID/Info               : UTF-8 Plain Text
    Duration                    : 1 h 58 min
    Bit rate                    : 73 b/s
    Count of elements           : 1653
    Stream size                 : 64.1 KiB (0%)
    Title                       : Sub_Esp
    Language                    : Spanish
    Default                     : No
    Forced                      : No

    Text #3
    ID                          : 6
    Format                      : PGS
    Muxing mode                 : zlib
    Codec ID                    : S_HDMV/PGS
    Codec ID/Info               : Picture based subtitle format used on BDs/HD-DVDs
    Duration                    : 1 h 57 min
    Bit rate                    : 35.6 kb/s
    Count of elements           : 3358
    Stream size                 : 29.9 MiB (0%)
    Title                       : Sub_Eng [PGS]
    Language                    : English
    Default                     : No
    Forced                      : No

    Menu
    00:00:00.000                : en:Chapter 01
    00:15:11.327                : en:Chapter 02
    00:42:26.335                : en:Chapter 03
    01:05:14.202                : en:Chapter 04
    01:26:20.550                : en:Chapter 05
    01:45:36.247                : en:Chapter 06

  • Peso: 26.7 GiB

Sinopsis

Descargar Entre la Razón y la Locura (2019) REMUX 1080p Latino. El profesor James Murray comienza a compilar palabras para la primera edición del Oxford English Dictionary a mediados del siglo XIX .

Ficha técnica

Video trailer de la película

Enlaces de descarga

Rip de Bluray

Descargar Entre la Razón y la Locura (2019) REMUX 1080p Latino




Aportes de DPeliculasHDmega la pass es:dpeliculashdmega.org Aportes de CinemaniaHD la pass es:cinemaniahdd.com
Guardado en : Drama , Historia , Misterio , Remux , Suspenso

Películas relacionadas

descargar Entre la Razón y la Locura (2019) REMUX 1080p Latino Full 1080p 1080p gratis, Entre la Razón y la Locura (2019) REMUX 1080p Latino Full 1080p mega 1 link, Entre la Razón y la Locura (2019) REMUX 1080p Latino Full 1080p pelicula completa, descargar Entre la Razón y la Locura (2019) REMUX 1080p Latino Full 1080p gratis en mega.

Entre la Razón y la Locura (2019) REMUX 1080p Latino pelicula full hd, Entre la Razón y la Locura (2019) REMUX 1080p Latino mega latino, Entre la Razón y la Locura (2019) REMUX 1080p Latino 4k latino, Entre la Razón y la Locura (2019) REMUX 1080p Latino pelicula completa, Entre la Razón y la Locura (2019) REMUX 1080p Latino descargar gratis, descargar Entre la Razón y la Locura (2019) REMUX 1080p Latino pelicula latino, Entre la Razón y la Locura (2019) REMUX 1080p Latino 1 link mega, Entre la Razón y la Locura (2019) REMUX 1080p Latino 1 link google drive, Entre la Razón y la Locura (2019) REMUX 1080p Latino hd 1080p latino.
Comentarios 0