×

¿Problemas para descargar con Mozilla, EDGE? Deshabilita la opción "Abrir vinculos en una pestaña nueva" tal como lo muestra ésta imagen.

The Princess Diaries (2001) REMUX 1080p Latino – CMHDD

142 vistas

Información de The Princess Diaries (2001) REMUX 1080p Latino – CMHDD

Datos de la película

  • Calidad: Full 1080p
  • Audio: Español Latino AC3 5.1 BLURAY - Ingles DTS 5.1 BLURAY
  • Subtitulos: Español Latino PGS
  • Resolución: 19201080p
  • Formato: MKV
  • Codec: H.264
  • Encoder: Dracarys
  • Mediainfo: Clic para Mostrar Datos Ver
  • Format                      : Matroska
    Format version              : Version 4
    File size                   : 19.0 GiB
    Duration                    : 1 h 55 min
    Overall bit rate mode       : Variable
    Overall bit rate            : 23.6 Mb/s
    Movie name                  : The Princess Diaries (2001) REMUX 1080p Latino - CMHDD
    Encoded date                : UTC 2023-10-19 23:28:13
    Writing application         : mkvmerge v47.0.0 ('Black Flag') 64-bit
    Writing library             : libebml v1.3.10 + libmatroska v1.5.2

    Video
    ID                          : 1
    Format                      : AVC
    Format/Info                 : Advanced Video Codec
    Format profile              : High@L4.1
    Format settings             : CABAC / 4 Ref Frames
    Format settings, CABAC      : Yes
    Format settings, Reference  : 4 frames
    Codec ID                    : V_MPEG4/ISO/AVC
    Duration                    : 1 h 55 min
    Bit rate mode               : Variable
    Bit rate                    : 18.4 Mb/s
    Maximum bit rate            : 36.0 Mb/s
    Width                       : 1 920 pixels
    Height                      : 1 080 pixels
    Display aspect ratio        : 16:9
    Frame rate mode             : Constant
    Frame rate                  : 23.976 (24000/1001) FPS
    Color space                 : YUV
    Chroma subsampling          : 4:2:0
    Bit depth                   : 8 bits
    Scan type                   : Progressive
    Bits/(Pixel*Frame)          : 0.371
    Stream size                 : 14.9 GiB (78%)
    Default                     : Yes
    Forced                      : No

    Audio #1
    ID                          : 2
    Format                      : DTS XLL
    Format/Info                 : Digital Theater Systems
    Commercial name             : DTS-HD Master Audio
    Codec ID                    : A_DTS
    Duration                    : 1 h 55 min
    Bit rate mode               : Variable
    Bit rate                    : 4 497 kb/s
    Channel(s)                  : 6 channels
    Channel layout              : C L R Ls Rs LFE
    Sampling rate               : 48.0 kHz
    Frame rate                  : 93.750 FPS (512 SPF)
    Bit depth                   : 24 bits
    Compression mode            : Lossless
    Stream size                 : 3.63 GiB (19%)
    Language                    : English
    Default                     : No
    Forced                      : No

    Audio #2
    ID                          : 3
    Format                      : AC-3
    Format/Info                 : Audio Coding 3
    Commercial name             : Dolby Digital
    Codec ID                    : A_AC3
    Duration                    : 1 h 55 min
    Bit rate mode               : Constant
    Bit rate                    : 640 kb/s
    Channel(s)                  : 6 channels
    Channel layout              : L R C LFE Ls Rs
    Sampling rate               : 48.0 kHz
    Frame rate                  : 31.250 FPS (1536 SPF)
    Compression mode            : Lossy
    Stream size                 : 529 MiB (3%)
    Language                    : Spanish
    Service kind                : Complete Main
    Default                     : Yes
    Forced                      : No

    Text #1
    ID                          : 4
    Format                      : PGS
    Muxing mode                 : zlib
    Codec ID                    : S_HDMV/PGS
    Codec ID/Info               : Picture based subtitle format used on BDs/HD-DVDs
    Duration                    : 1 h 49 min
    Bit rate                    : 40.6 kb/s
    Frame rate                  : 0.474 FPS
    Count of elements           : 3116
    Stream size                 : 31.8 MiB (0%)
    Language                    : Spanish
    Default                     : No
    Forced                      : No

    Text #2
    ID                          : 5
    Format                      : PGS
    Muxing mode                 : zlib
    Codec ID                    : S_HDMV/PGS
    Codec ID/Info               : Picture based subtitle format used on BDs/HD-DVDs
    Duration                    : 1 h 38 min
    Bit rate                    : 365 b/s
    Frame rate                  : 0.005 FPS
    Count of elements           : 32
    Stream size                 : 263 KiB (0%)
    Language                    : Spanish
    Default                     : Yes
    Forced                      : No

     

  • Peso: 19.0 GiB

Sinopsis

La vida de Mia Thermopolis, una tímida adolescente que vive en San Francisco, da un vuelco cuando averigua que es la heredera del trono del diminuto principado europeo de Genovia. Su estricta y sabia abuela, la Reina Clarisse Renaldi, irrumpe entonces en su vida con la intención de prepararla para ser princesa, pero Mia no tiene la menor intención de dejar su vida para gobernar un país tan lejano. La reticente princesa se enfrenta al dilema más importante de su vida: seguir con su familia o aceptar sus responsabilidades como princesa.

Ficha técnica

Video trailer de la película

Enlaces de descarga

Rip de Bluray

Descargar The Princess Diaries (2001) REMUX 1080p Latino – CMHDD




Aportes de DPeliculasHDmega la pass es:dpeliculashdmega.org Aportes de CinemaniaHD la pass es:cinemaniahdd.com Aportes recientes:cinemaniahdd.net
Guardado en : Comedia , Familia , Romance

Películas relacionadas

descargar The Princess Diaries (2001) REMUX 1080p Latino – CMHDD Full 1080p 1080p gratis, The Princess Diaries (2001) REMUX 1080p Latino – CMHDD Full 1080p mega 1 link, The Princess Diaries (2001) REMUX 1080p Latino – CMHDD Full 1080p pelicula completa, descargar The Princess Diaries (2001) REMUX 1080p Latino – CMHDD Full 1080p gratis en mega.

The Princess Diaries (2001) REMUX 1080p Latino – CMHDD pelicula full hd, The Princess Diaries (2001) REMUX 1080p Latino – CMHDD mega latino, The Princess Diaries (2001) REMUX 1080p Latino – CMHDD 4k latino, The Princess Diaries (2001) REMUX 1080p Latino – CMHDD pelicula completa, The Princess Diaries (2001) REMUX 1080p Latino – CMHDD descargar gratis, descargar The Princess Diaries (2001) REMUX 1080p Latino – CMHDD pelicula latino, The Princess Diaries (2001) REMUX 1080p Latino – CMHDD 1 link mega, The Princess Diaries (2001) REMUX 1080p Latino – CMHDD 1 link google drive, The Princess Diaries (2001) REMUX 1080p Latino – CMHDD hd 1080p latino.
Comentarios 0