×

¿Problemas para descargar con Mozilla, EDGE? Deshabilita la opción "Abrir vinculos en una pestaña nueva" tal como lo muestra ésta imagen.

El Diario De La Princesa (2001) Full HD 1080p Latino

17.039 vistas

Información de El Diario De La Princesa (2001) Full HD 1080p Latino

Datos de la película

  • Calidad: Full 1080p
  • Audio: Español Latino AC3 5.1 BLURAY - Ingles DTS 5.1 BLURAY
  • Subtitulos: Español Latino PGS - Ingles PGS
  • Resolución: 1920x1080p
  • Formato: MKV
  • Codec: H.264
  • Encoder: CinefiloCool
  • Mediainfo: Clic para Mostrar Datos Ver
  • El Diario de la Princesa (2001) Full HD 1080p Latino-CMHDD.mkv
    Format                      : Matroska
    Format version              : Version 4
    File size                   : 13.8 GiB
    Duration                    : 1 h 55 min
    Overall bit rate            : 17.0 Mb/s
    Movie name                  : The Princess Diaries (2001) CinemaniaHDD.Net
    Encoded date                : UTC 2020-03-05 07:26:51
    Writing application         : mkvmerge v42.0.0 ('Overtime') 64-bit
    Writing library             : libebml v1.3.10 + libmatroska v1.5.2
    Attachments                 : CINEMANIAHD.png

    Video
    ID                          : 1
    Format                      : AVC
    Format/Info                 : Advanced Video Codec
    Format profile              : High@L4.1
    Format settings             : CABAC / 4 Ref Frames
    Format settings, CABAC      : Yes
    Format settings, ReFrames   : 4 frames
    Codec ID                    : V_MPEG4/ISO/AVC
    Duration                    : 1 h 55 min
    Bit rate                    : 14.9 Mb/s
    Width                       : 1 920 pixels
    Height                      : 1 080 pixels
    Display aspect ratio        : 16:9
    Frame rate mode             : Constant
    Frame rate                  : 23.976 (24000/1001) FPS
    Color space                 : YUV
    Chroma subsampling          : 4:2:0
    Bit depth                   : 8 bits
    Scan type                   : Progressive
    Bits/(Pixel*Frame)          : 0.299
    Stream size                 : 12.0 GiB (87%)
    Title                       : Full HD1080p [Bluray]
    Writing library             : x264 core 157 r2935 545de2f
    Encoding settings           : cabac=1 / ref=4 / deblock=1:-2:-2 / analyse=0x3:0x133 / me=tesa / subme=11 / psy=1 / psy_rd=1.00:0.25 / mixed_ref=1 / me_range=24 / chroma_me=1 / trellis=2 / 8x8dct=1 / cqm=0 / deadzone=6,6 / fast_pskip=0 / chroma_qp_offset=-4 / threads=34 / lookahead_threads=8 / sliced_threads=0 / nr=0 / decimate=0 / interlaced=0 / bluray_compat=0 / constrained_intra=0 / bframes=16 / b_pyramid=2 / b_adapt=2 / b_bias=0 / direct=3 / weightb=1 / open_gop=0 / weightp=2 / keyint=240 / keyint_min=24 / scenecut=40 / intra_refresh=0 / rc_lookahead=60 / rc=crf / mbtree=1 / crf=20.0 / qcomp=0.80 / qpmin=0 / qpmax=69 / qpstep=4 / vbv_maxrate=62500 / vbv_bufsize=78125 / crf_max=0.0 / nal_hrd=none / filler=0 / ip_ratio=1.10 / aq=1:0.50
    Default                     : Yes
    Forced                      : Yes
    Color range                 : Limited
    Color primaries             : BT.709
    Transfer characteristics    : BT.709
    Matrix coefficients         : BT.709

    Audio #1
    ID                          : 2
    Format                      : AC-3
    Format/Info                 : Audio Coding 3
    Commercial name             : Dolby Digital
    Codec ID                    : A_AC3
    Duration                    : 1 h 55 min
    Bit rate mode               : Constant
    Bit rate                    : 640 kb/s
    Channel(s)                  : 6 channels
    Channel layout              : L R C LFE Ls Rs
    Sampling rate               : 48.0 kHz
    Frame rate                  : 31.250 FPS (1536 SPF)
    Bit depth                   : 16 bits
    Compression mode            : Lossy
    Stream size                 : 529 MiB (4%)
    Title                       : AC3_5.1_Bluray_Esp
    Language                    : Spanish
    Service kind                : Complete Main
    Default                     : Yes
    Forced                      : Yes

    Audio #2
    ID                          : 3
    Format                      : DTS
    Format/Info                 : Digital Theater Systems
    Codec ID                    : A_DTS
    Duration                    : 1 h 55 min
    Bit rate mode               : Constant
    Bit rate                    : 1 509 kb/s
    Channel(s)                  : 6 channels
    Channel layout              : C L R Ls Rs LFE
    Sampling rate               : 48.0 kHz
    Frame rate                  : 93.750 FPS (512 SPF)
    Bit depth                   : 24 bits
    Compression mode            : Lossy
    Stream size                 : 1.22 GiB (9%)
    Title                       : DTS_5.1_Bluray_Eng
    Language                    : English
    Default                     : No
    Forced                      : No

    Text #1
    ID                          : 4
    Format                      : PGS
    Muxing mode                 : zlib
    Codec ID                    : S_HDMV/PGS
    Codec ID/Info               : Picture based subtitle format used on BDs/HD-DVDs
    Duration                    : 1 h 49 min
    Bit rate                    : 41.0 kb/s
    Count of elements           : 3522
    Stream size                 : 32.1 MiB (0%)
    Title                       : Sub_Esp [PGS]
    Language                    : Spanish
    Default                     : No
    Forced                      : No

    Text #2
    ID                          : 5
    Format                      : PGS
    Muxing mode                 : zlib
    Codec ID                    : S_HDMV/PGS
    Codec ID/Info               : Picture based subtitle format used on BDs/HD-DVDs
    Duration                    : 1 h 48 min
    Bit rate                    : 41.8 kb/s
    Count of elements           : 2922
    Stream size                 : 32.6 MiB (0%)
    Title                       : Sub_Eng [PGS]
    Language                    : English
    Default                     : No
    Forced                      : No

    Text #3
    ID                          : 6
    Format                      : UTF-8
    Codec ID                    : S_TEXT/UTF8
    Codec ID/Info               : UTF-8 Plain Text
    Duration                    : 1 h 37 min
    Bit rate                    : 0 b/s
    Count of elements           : 12
    Stream size                 : 318 Bytes (0%)
    Title                       : Sub_Forzados
    Language                    : Spanish
    Default                     : Yes
    Forced                      : Yes

    Text #4
    ID                          : 7
    Format                      : UTF-8
    Codec ID                    : S_TEXT/UTF8
    Codec ID/Info               : UTF-8 Plain Text
    Duration                    : 1 h 49 min
    Bit rate                    : 72 b/s
    Count of elements           : 1761
    Stream size                 : 58.5 KiB (0%)
    Title                       : Sub_Esp
    Language                    : Spanish
    Default                     : No
    Forced                      : No

    Menu
    00:00:00.000                : en:Opening Titles/Time for School
    00:03:49.062                : en:Invisible Girl
    00:08:40.645                : en:"Catch a Falling Star"
    00:10:06.856                : en:Tea With Grandmother
    00:16:14.765                : en:Compromise
    00:21:56.565                : en:"You Can Call Me Joe"
    00:24:38.059                : en:Garage Band
    00:28:09.646                : en:Princess Lessons
    00:31:31.639                : en:Soccer Practice
    00:32:20.104                : en:Backseat Dressing Room
    00:33:20.415                : en:Dance Lesson
    00:36:06.289                : en:Mia's Transformation
    00:40:16.872                : en:Friends Tell
    00:45:33.897                : en:Waving Lesson
    00:47:11.995                : en:Identity Revealed
    00:53:30.874                : en:The State Dinner
    00:59:11.464                : en:Tour of San Francisco
    01:06:48.170                : en:A Change in Plans
    01:11:02.258                : en:Baker Beach Bash
    01:17:58.632                : en:A Picture Is Worth a Thousand Words
    01:23:51.026                : en:Royally Flushed
    01:29:12.472                : en:A Gift From Your Father
    01:32:57.488                : en:Courage
    01:35:30.641                : en:Independence Ball
    01:40:36.071                : en:Princess of Genovia
    01:45:36.121                : en:Foot-Popping
    01:49:33.149                : en:Welcome to Genovia/End Credits

  • Peso: 13.8 GiB

Sinopsis

Descargar El Diario De La Princesa (2001) Full HD 1080p Latino. La vida de Mia Thermopolis (Anne Hathaway), una tímida adolescente que vive en San Francisco, da un vuelco cuando averigua que es la heredera del trono del diminuto principado europeo de Genovia. Su estricta y sabia abuela, la Reina Clarisse Renaldi (Julie Andrews), irrumpe entonces en su vida con la intención de prepararla para ser princesa, pero Mia no tiene la menor intención de dejar su vida para gobernar un país tan lejano. La reticente princesa se enfrenta al dilema más importante de su vida: seguir con su familia o aceptar sus responsabilidades como princesa.

Ficha técnica

Video trailer de la película

Enlaces de descarga

Rip de Bluray

Descargar El Diario De La Princesa (2001) Full HD 1080p Latino




Aportes de DPeliculasHDmega la pass es:dpeliculashdmega.org Aportes de CinemaniaHD la pass es:cinemaniahdd.com

Películas relacionadas

  • DC Liga De Supermascotas (2022) HD 1080p Latino

    DC Liga De Supermascotas (2022) HD 1080p Latino

    2022
    DC Liga De Supermascotas (2022) HD 1080p Latino

    1h 45m 2022

    Descargar DC Liga De Supermascotas (2022) HD 1080p Latino. Krypto el Superperro y Superman son amigos...

    Director: Sam Levine

    Género: Acción

    Actores: Yvette Nicole Brown

  • Rick and Morty (2022) Temporada 6 WEB-DL 1080p Latino

    Rick and Morty (2022) Temporada 6 WEB-DL 1080p Latino

    2013
    Rick and Morty (2022) Temporada 6 WEB-DL 1080p Latino

    0h 22m 2013

    Comedia animada que narra las aventuras de un científico loco Rick Sánchez, que regresa después de...

    Director: Justin Roiland

    Género: Action & Adventure

    Actores: Spencer Grammer

  • Tremors (1990) REMUX 4K HDR Latino – CMHDD

    Tremors (1990) REMUX 4K HDR Latino – CMHDD

    1990
    Tremors (1990) REMUX 4K HDR Latino – CMHDD

    1h 35m 1990

    En Perfección, un pequeño pueblo al borde del desierto de Nevada, algo parece suceder debajo de la...

    Director: Susan Bierbaum

    Género: Acción

    Actores: Victor Wong

descargar El Diario De La Princesa (2001) Full HD 1080p Latino Full 1080p 1080p gratis, El Diario De La Princesa (2001) Full HD 1080p Latino Full 1080p mega 1 link, El Diario De La Princesa (2001) Full HD 1080p Latino Full 1080p pelicula completa, descargar El Diario De La Princesa (2001) Full HD 1080p Latino Full 1080p gratis en mega.

El Diario De La Princesa (2001) Full HD 1080p Latino pelicula full hd, El Diario De La Princesa (2001) Full HD 1080p Latino mega latino, El Diario De La Princesa (2001) Full HD 1080p Latino 4k latino, El Diario De La Princesa (2001) Full HD 1080p Latino pelicula completa, El Diario De La Princesa (2001) Full HD 1080p Latino descargar gratis, descargar El Diario De La Princesa (2001) Full HD 1080p Latino pelicula latino, El Diario De La Princesa (2001) Full HD 1080p Latino 1 link mega, El Diario De La Princesa (2001) Full HD 1080p Latino 1 link google drive, El Diario De La Princesa (2001) Full HD 1080p Latino hd 1080p latino.
Comentarios 0