×

¿Problemas para descargar con Mozilla, EDGE? Deshabilita la opción "Abrir vinculos en una pestaña nueva" tal como lo muestra ésta imagen.

El Diario De La Princesa (2001) Web-DL 4K UHD HDR Latino

720 vistas

Información de El Diario De La Princesa (2001) Web-DL 4K UHD HDR Latino

Datos de la película

  • Calidad: 4K HDR
  • Audio: Se especifica abajo de la Sinopsis
  • Subtitulos: Español Latino SRT - Ingles SRT
  • Resolución: 3840x2160p
  • Formato: MKV
  • Codec: HEVC
  • Encoder: CinefiloCool
  • Mediainfo: Clic para Mostrar Datos Ver
  • El Diario de la Princesa (2001) Web-DL UHD HDR Latino-CMHDD.mkv
    Format                      : Matroska
    Format version              : Version 4
    File size                   : 14.1 GiB
    Duration                    : 1 h 56 min
    Overall bit rate            : 17.4 Mb/s
    Movie name                  : CinemaniaHDD.Net
    Encoded date                : UTC 2020-03-04 22:17:18
    Writing application         : mkvmerge v42.0.0 ('Overtime') 64-bit
    Writing library             : libebml v1.3.10 + libmatroska v1.5.2
    Attachments                 : CINEMANIAHD.png

    Video
    ID                          : 1
    Format                      : HEVC
    Format/Info                 : High Efficiency Video Coding
    Format profile              : Main 10@L5@High
    Codec ID                    : V_MPEGH/ISO/HEVC
    Duration                    : 1 h 56 min
    Bit rate                    : 16.5 Mb/s
    Width                       : 3 840 pixels
    Height                      : 2 160 pixels
    Display aspect ratio        : 16:9
    Frame rate mode             : Constant
    Frame rate                  : 23.976 (24000/1001) FPS
    Color space                 : YUV
    Chroma subsampling          : 4:2:0
    Bit depth                   : 10 bits
    Bits/(Pixel*Frame)          : 0.083
    Stream size                 : 13.4 GiB (95%)
    Title                       : 2160p HDR [Web]
    Default                     : Yes
    Forced                      : Yes
    Color range                 : Limited
    Color primaries             : BT.2020
    Transfer characteristics    : PQ
    Matrix coefficients         : BT.2020 non-constant

    Audio #1
    ID                          : 2
    Format                      : AC-3
    Format/Info                 : Audio Coding 3
    Commercial name             : Dolby Digital
    Codec ID                    : A_AC3
    Duration                    : 1 h 55 min
    Bit rate mode               : Constant
    Bit rate                    : 640 kb/s
    Channel(s)                  : 6 channels
    Channel layout              : L R C LFE Ls Rs
    Sampling rate               : 48.0 kHz
    Frame rate                  : 31.250 FPS (1536 SPF)
    Bit depth                   : 16 bits
    Compression mode            : Lossy
    Delay relative to video     : 21 ms
    Stream size                 : 528 MiB (4%)
    Title                       : AC3_5.1_Bluray_Esp
    Language                    : Spanish
    Service kind                : Complete Main
    Default                     : Yes
    Forced                      : Yes

    Audio #2
    ID                          : 3
    Format                      : E-AC-3
    Format/Info                 : Enhanced AC-3
    Commercial name             : Dolby Digital Plus
    Codec ID                    : A_EAC3
    Duration                    : 1 h 56 min
    Bit rate mode               : Constant
    Bit rate                    : 256 kb/s
    Channel(s)                  : 6 channels
    Channel layout              : L R C LFE Ls Rs
    Sampling rate               : 48.0 kHz
    Frame rate                  : 31.250 FPS (1536 SPF)
    Compression mode            : Lossy
    Stream size                 : 213 MiB (1%)
    Title                       : DDP_5.1_Web_Esp
    Language                    : English
    Service kind                : Complete Main
    Default                     : No
    Forced                      : No

    Text #1
    ID                          : 4
    Format                      : UTF-8
    Codec ID                    : S_TEXT/UTF8
    Codec ID/Info               : UTF-8 Plain Text
    Duration                    : 1 h 37 min
    Bit rate                    : 0 b/s
    Count of elements           : 12
    Stream size                 : 318 Bytes (0%)
    Title                       : Sub_Forzados
    Language                    : Spanish
    Default                     : Yes
    Forced                      : Yes

    Text #2
    ID                          : 5
    Format                      : UTF-8
    Codec ID                    : S_TEXT/UTF8
    Codec ID/Info               : UTF-8 Plain Text
    Duration                    : 1 h 49 min
    Bit rate                    : 72 b/s
    Count of elements           : 1761
    Stream size                 : 58.5 KiB (0%)
    Title                       : Sub_Esp
    Language                    : Spanish
    Default                     : No
    Forced                      : No

    Text #3
    ID                          : 6
    Format                      : UTF-8
    Codec ID                    : S_TEXT/UTF8
    Codec ID/Info               : UTF-8 Plain Text
    Duration                    : 1 h 52 min
    Bit rate                    : 74 b/s
    Count of elements           : 1650
    Stream size                 : 61.8 KiB (0%)
    Title                       : Sub_Eng
    Language                    : English
    Default                     : No
    Forced                      : No

    Menu
    00:00:00.000                : en:Opening Titles/Time for School
    00:03:48.027                : en:Invisible Girl
    00:08:39.610                : en:"Catch a Falling Star"
    00:10:05.821                : en:Tea With Grandmother
    00:16:13.730                : en:Compromise
    00:21:55.530                : en:"You Can Call Me Joe"
    00:24:37.024                : en:Garage Band
    00:28:08.611                : en:Princess Lessons
    00:31:30.604                : en:Soccer Practice
    00:32:19.069                : en:Backseat Dressing Room
    00:33:19.380                : en:Dance Lesson
    00:36:05.254                : en:Mia's Transformation
    00:40:15.837                : en:Friends Tell
    00:45:32.862                : en:Waving Lesson
    00:47:10.960                : en:Identity Revealed
    00:53:29.839                : en:The State Dinner
    00:59:10.429                : en:Tour of San Francisco
    01:06:47.135                : en:A Change in Plans
    01:11:01.223                : en:Baker Beach Bash
    01:17:57.597                : en:A Picture Is Worth a Thousand Words
    01:23:49.991                : en:Royally Flushed
    01:29:11.437                : en:A Gift From Your Father
    01:32:56.453                : en:Courage
    01:35:29.606                : en:Independence Ball
    01:40:35.036                : en:Princess of Genovia
    01:45:35.086                : en:Foot-Popping
    01:49:32.114                : en:Welcome to Genovia/End Credits

  • Peso: 14.1 GiB

Sinopsis

Descargar El Diario De La Princesa (2001) Web-DL 4K UHD HDR Latino. La vida de Mia Thermopolis (Anne Hathaway), una tímida adolescente que vive en San Francisco, da un vuelco cuando averigua que es la heredera del trono del diminuto principado europeo de Genovia. Su estricta y sabia abuela, la Reina Clarisse Renaldi (Julie Andrews), irrumpe entonces en su vida con la intención de prepararla para ser princesa, pero Mia no tiene la menor intención de dejar su vida para gobernar un país tan lejano. La reticente princesa se enfrenta al dilema más importante de su vida: seguir con su familia o aceptar sus responsabilidades como princesa.

Audio Español Latino AC3 5.1 Bluray – Ingles EAC3 5.1 Web-DL

Ficha técnica

Video trailer de la película

Enlaces de descarga

Rip de Bluray

Descargar El Diario De La Princesa (2001) Web-DL 4K UHD HDR Latino




Aportes de DPeliculasHDmega la pass es:dpeliculashdmega.org Aportes de CinemaniaHD la pass es:cinemaniahdd.com
Guardado en : 4K HDR , 4K UHD , Comedia , Familia , Romance

Películas relacionadas

  • M3GAN (2023) AMZN WEB-DL 4K UHD HDR Latino

    M3GAN (2023) AMZN WEB-DL 4K UHD HDR Latino

    2022
    M3GAN (2023) AMZN WEB-DL 4K UHD HDR Latino

    1h 42m 2022

    Descargar M3GAN (2023) AMZN WEB-DL 4K UHD HDR Latino. Cuando Gemma se convierte en la cuidadora de su...

    Director: Stephen W. Moore

    Género: 4K HDR

    Actores: Violet McGraw

  • M3GAN (2022) MA WEB-DL 1080p Latino

    M3GAN (2022) MA WEB-DL 1080p Latino

    2022
    M3GAN (2022) MA WEB-DL 1080p Latino

    1h 42m 2022

    Descargar M3GAN (2022) MA WEB-DL 1080p Latino. Cuando Gemma se convierte en la cuidadora de su sobrina...

    Director: Stephen W. Moore

    Género: Ciencia ficción

    Actores: Violet McGraw

  • Noche sin paz (2022) PLACEBO Full HD 1080p Latino

    Noche sin paz (2022) PLACEBO Full HD 1080p Latino

    2022
    Noche sin paz (2022) PLACEBO Full HD 1080p Latino

    1h 41m 2022

    Descargar Noche sin paz (2022) PLACEBO Full HD 1080p Latino. Cuando un equipo de mercenarios irrumpe...

    Director: Tyshana Hobson

    Género: Acción

    Actores: Yoon Cha-Lee

  • Noche sin paz (2022) HD 1080p Latino

    Noche sin paz (2022) HD 1080p Latino

    2022
    Noche sin paz (2022) HD 1080p Latino

    1h 41m 2022

    Descargar Noche sin paz (2022) HD 1080p Latino. Cuando un equipo de mercenarios irrumpe en Nochebuena...

    Director: Tyshana Hobson

    Género: Acción

    Actores: Yoon Cha-Lee

  • Noche sin paz (2022) REMUX 1080p Latino

    Noche sin paz (2022) REMUX 1080p Latino

    2022
    Noche sin paz (2022) REMUX 1080p Latino

    1h 41m 2022

    Descargar Noche sin paz (2022) REMUX 1080p Latino. Cuando un equipo de mercenarios irrumpe en Nochebuena...

    Director: Tyshana Hobson

    Género: Acción

    Actores: Yoon Cha-Lee

descargar El Diario De La Princesa (2001) Web-DL 4K UHD HDR Latino 4K HDR 1080p gratis, El Diario De La Princesa (2001) Web-DL 4K UHD HDR Latino 4K HDR mega 1 link, El Diario De La Princesa (2001) Web-DL 4K UHD HDR Latino 4K HDR pelicula completa, descargar El Diario De La Princesa (2001) Web-DL 4K UHD HDR Latino 4K HDR gratis en mega.

El Diario De La Princesa (2001) Web-DL 4K UHD HDR Latino pelicula full hd, El Diario De La Princesa (2001) Web-DL 4K UHD HDR Latino mega latino, El Diario De La Princesa (2001) Web-DL 4K UHD HDR Latino 4k latino, El Diario De La Princesa (2001) Web-DL 4K UHD HDR Latino pelicula completa, El Diario De La Princesa (2001) Web-DL 4K UHD HDR Latino descargar gratis, descargar El Diario De La Princesa (2001) Web-DL 4K UHD HDR Latino pelicula latino, El Diario De La Princesa (2001) Web-DL 4K UHD HDR Latino 1 link mega, El Diario De La Princesa (2001) Web-DL 4K UHD HDR Latino 1 link google drive, El Diario De La Princesa (2001) Web-DL 4K UHD HDR Latino hd 1080p latino.
Comentarios 0