×

¿Problemas para descargar con Mozilla, EDGE? Deshabilita la opción "Abrir vinculos en una pestaña nueva" tal como lo muestra ésta imagen.

The Princess Diaries 2 Royal Engagement (2004) REMUX 1080p Latino – CMHDD

108 vistas

Información de The Princess Diaries 2 Royal Engagement (2004) REMUX 1080p Latino – CMHDD

Datos de la película

  • Calidad: Full 1080p
  • Audio: Español Latino AC3 5.1 BLURAY - Ingles DTS 5.1 BLURAY
  • Subtitulos: Español Latino PGS
  • Resolución: 19201080p
  • Formato: MKV
  • Codec: H.264
  • Encoder: Dracarys
  • Mediainfo: Clic para Mostrar Datos Ver
  • Format                      : Matroska
    Format version              : Version 4
    File size                   : 19.1 GiB
    Duration                    : 1 h 53 min
    Overall bit rate mode       : Variable
    Overall bit rate            : 24.1 Mb/s
    Movie name                  : The Princess Diaries 2: Royal Engagement (2004) REMUX 1080p Latino - CMHDD
    Encoded date                : UTC 2023-10-19 23:38:44
    Writing application         : mkvmerge v47.0.0 ('Black Flag') 64-bit
    Writing library             : libebml v1.3.10 + libmatroska v1.5.2

    Video
    ID                          : 1
    Format                      : AVC
    Format/Info                 : Advanced Video Codec
    Format profile              : High@L4.1
    Format settings             : CABAC / 4 Ref Frames
    Format settings, CABAC      : Yes
    Format settings, Reference  : 4 frames
    Codec ID                    : V_MPEG4/ISO/AVC
    Duration                    : 1 h 53 min
    Bit rate mode               : Variable
    Bit rate                    : 19.0 Mb/s
    Maximum bit rate            : 38.0 Mb/s
    Width                       : 1 920 pixels
    Height                      : 1 080 pixels
    Display aspect ratio        : 16:9
    Frame rate mode             : Constant
    Frame rate                  : 23.976 (24000/1001) FPS
    Color space                 : YUV
    Chroma subsampling          : 4:2:0
    Bit depth                   : 8 bits
    Scan type                   : Progressive
    Bits/(Pixel*Frame)          : 0.381
    Stream size                 : 15.0 GiB (79%)
    Default                     : Yes
    Forced                      : No

    Audio #1
    ID                          : 2
    Format                      : DTS XLL
    Format/Info                 : Digital Theater Systems
    Commercial name             : DTS-HD Master Audio
    Codec ID                    : A_DTS
    Duration                    : 1 h 53 min
    Bit rate mode               : Variable
    Bit rate                    : 4 502 kb/s
    Channel(s)                  : 6 channels
    Channel layout              : C L R Ls Rs LFE
    Sampling rate               : 48.0 kHz
    Frame rate                  : 93.750 FPS (512 SPF)
    Bit depth                   : 24 bits
    Compression mode            : Lossless
    Stream size                 : 3.56 GiB (19%)
    Language                    : English
    Default                     : No
    Forced                      : No

    Audio #2
    ID                          : 3
    Format                      : AC-3
    Format/Info                 : Audio Coding 3
    Commercial name             : Dolby Digital
    Codec ID                    : A_AC3
    Duration                    : 1 h 53 min
    Bit rate mode               : Constant
    Bit rate                    : 640 kb/s
    Channel(s)                  : 6 channels
    Channel layout              : L R C LFE Ls Rs
    Sampling rate               : 48.0 kHz
    Frame rate                  : 31.250 FPS (1536 SPF)
    Compression mode            : Lossy
    Stream size                 : 518 MiB (3%)
    Language                    : Spanish
    Service kind                : Complete Main
    Default                     : Yes
    Forced                      : No

    Text #1
    ID                          : 4
    Format                      : PGS
    Muxing mode                 : zlib
    Codec ID                    : S_HDMV/PGS
    Codec ID/Info               : Picture based subtitle format used on BDs/HD-DVDs
    Duration                    : 1 h 52 min
    Bit rate                    : 36.9 kb/s
    Frame rate                  : 0.429 FPS
    Count of elements           : 2900
    Stream size                 : 29.7 MiB (0%)
    Language                    : Spanish
    Default                     : No
    Forced                      : No

    Text #2
    ID                          : 5
    Format                      : PGS
    Muxing mode                 : zlib
    Codec ID                    : S_HDMV/PGS
    Codec ID/Info               : Picture based subtitle format used on BDs/HD-DVDs
    Duration                    : 1 h 47 min
    Bit rate                    : 88 b/s
    Frame rate                  : 0.001 FPS
    Count of elements           : 6
    Stream size                 : 69.5 KiB (0%)
    Language                    : Spanish
    Default                     : Yes
    Forced                      : No

     

  • Peso: 19.1 GiB

Sinopsis

Mia (Anne Hathaway) ya está preparada para ser princesa de Genovia. Sin embargo, nada más instalarse en el Palacio Real con su bella y sabia abuela, la Reina Clarisse (Julie Andrews), se entera de que tendrá que prepararse inmediatamente para ser reina. Pero, entonces, tendrá que afrontar un peliagudo problema: en Genovia hay una ley que establece que las princesas tienen que casarse antes de ser coronadas; así que Mia tendrá que soportar un desfile de pretendientes cuya única aspiración es ocupar el trono.

Ficha técnica

Video trailer de la película

Enlaces de descarga

Rip de Bluray

Descargar The Princess Diaries 2 Royal Engagement (2004) REMUX 1080p Latino – CMHDD




Aportes de DPeliculasHDmega la pass es:dpeliculashdmega.org Aportes de CinemaniaHD la pass es:cinemaniahdd.com Aportes recientes:cinemaniahdd.net
Guardado en : Comedia , Drama , Familia , Romance

Películas relacionadas

  • Puppy Love (2023) AMZN 4K-HDR WEB-DL 2160p Latino

    Puppy Love (2023) AMZN 4K-HDR WEB-DL 2160p Latino

    2023
    Puppy Love (2023) AMZN 4K-HDR WEB-DL 2160p Latino

    1h 46m 2023

    Después de una desastrosa primera cita, Nicole, una joven desenfrenada, y Max, socialmente ansioso,...

    Director: Trevor Cunningham

    Género: 4K HDR

    Actores: Sarah Almonte Peguero

  • Puppy Love (2023) AMZN WEB-DL 1080p Latino

    Puppy Love (2023) AMZN WEB-DL 1080p Latino

    2023
    Puppy Love (2023) AMZN WEB-DL 1080p Latino

    1h 46m 2023

    Después de una desastrosa primera cita, Nicole, una joven desenfrenada, y Max, socialmente ansioso,...

    Director: Trevor Cunningham

    Género: Comedia

    Actores: Sarah Almonte Peguero

  • iZombie (2016) Temporada 02 Full HD 1080p Latino

    iZombie (2016) Temporada 02 Full HD 1080p Latino

    2015
    iZombie (2016) Temporada 02 Full HD 1080p Latino

    0h 42m 2015

    Descargar iZombie (2016) Temporada 02 Full HD 1080p Latino. Gira en torno a una estudiante de medicina...

    Director: Rob Thomas

    Género: Crimen

    Actores: Rose McIver

  • iZombie (2016) Temporada 02 REMUX 1080p Latino

    iZombie (2016) Temporada 02 REMUX 1080p Latino

    2015
    iZombie (2016) Temporada 02 REMUX 1080p Latino

    0h 42m 2015

    Descargar iZombie (2016) Temporada 02 REMUX 1080p Latino. Gira en torno a una estudiante de medicina...

    Director: Rob Thomas

    Género: Crimen

    Actores: Rose McIver

descargar The Princess Diaries 2 Royal Engagement (2004) REMUX 1080p Latino – CMHDD Full 1080p 1080p gratis, The Princess Diaries 2 Royal Engagement (2004) REMUX 1080p Latino – CMHDD Full 1080p mega 1 link, The Princess Diaries 2 Royal Engagement (2004) REMUX 1080p Latino – CMHDD Full 1080p pelicula completa, descargar The Princess Diaries 2 Royal Engagement (2004) REMUX 1080p Latino – CMHDD Full 1080p gratis en mega.

The Princess Diaries 2 Royal Engagement (2004) REMUX 1080p Latino – CMHDD pelicula full hd, The Princess Diaries 2 Royal Engagement (2004) REMUX 1080p Latino – CMHDD mega latino, The Princess Diaries 2 Royal Engagement (2004) REMUX 1080p Latino – CMHDD 4k latino, The Princess Diaries 2 Royal Engagement (2004) REMUX 1080p Latino – CMHDD pelicula completa, The Princess Diaries 2 Royal Engagement (2004) REMUX 1080p Latino – CMHDD descargar gratis, descargar The Princess Diaries 2 Royal Engagement (2004) REMUX 1080p Latino – CMHDD pelicula latino, The Princess Diaries 2 Royal Engagement (2004) REMUX 1080p Latino – CMHDD 1 link mega, The Princess Diaries 2 Royal Engagement (2004) REMUX 1080p Latino – CMHDD 1 link google drive, The Princess Diaries 2 Royal Engagement (2004) REMUX 1080p Latino – CMHDD hd 1080p latino.
Comentarios 0