×

¿Problemas para descargar con Mozilla, EDGE? Deshabilita la opción "Abrir vinculos en una pestaña nueva" tal como lo muestra ésta imagen.

El Diario De La Princesa 2 (2004) REMUX 1080p Latino

488 vistas

Información de El Diario De La Princesa 2 (2004) REMUX 1080p Latino

Datos de la película

  • Calidad: Full 1080p
  • Audio: Español Latino AC3 5.1 BLURAY - Ingles DTS 5.1 BLURAY
  • Subtitulos: Español Latino PGS - Ingles PGS
  • Resolución: 1920x1080p
  • Formato: MKV
  • Codec: H.264
  • Encoder: CinefiloCool
  • Mediainfo: Clic para Mostrar Datos Ver
  • El Diario de la Princesa 2 (2004) REMUX 1080p Latino-CMHDD.mkv
    Format                      : Matroska
    Format version              : Version 4
    File size                   : 19.1 GiB
    Duration                    : 1 h 53 min
    Overall bit rate mode       : Variable
    Overall bit rate            : 24.2 Mb/s
    Movie name                  : The Princess Diaries 2: Royal Engagement (2004) CinemaniaHDD.Net
    Encoded date                : UTC 2020-03-04 17:04:08
    Writing application         : mkvmerge v42.0.0 ('Overtime') 64-bit
    Writing library             : libebml v1.3.10 + libmatroska v1.5.2
    Attachments                 : CINEMANIAHD.png

    Video
    ID                          : 1
    Format                      : AVC
    Format/Info                 : Advanced Video Codec
    Format profile              : High@L4.1
    Format settings             : CABAC / 4 Ref Frames
    Format settings, CABAC      : Yes
    Format settings, ReFrames   : 4 frames
    Codec ID                    : V_MPEG4/ISO/AVC
    Duration                    : 1 h 53 min
    Bit rate mode               : Variable
    Bit rate                    : 19.0 Mb/s
    Maximum bit rate            : 38.0 Mb/s
    Width                       : 1 920 pixels
    Height                      : 1 080 pixels
    Display aspect ratio        : 16:9
    Frame rate mode             : Constant
    Frame rate                  : 23.976 (24000/1001) FPS
    Color space                 : YUV
    Chroma subsampling          : 4:2:0
    Bit depth                   : 8 bits
    Scan type                   : Progressive
    Bits/(Pixel*Frame)          : 0.382
    Stream size                 : 15.0 GiB (79%)
    Title                       : Full HD1080p [REMUX]
    Default                     : Yes
    Forced                      : Yes

    Audio #1
    ID                          : 2
    Format                      : AC-3
    Format/Info                 : Audio Coding 3
    Commercial name             : Dolby Digital
    Codec ID                    : A_AC3
    Duration                    : 1 h 53 min
    Bit rate mode               : Constant
    Bit rate                    : 640 kb/s
    Channel(s)                  : 6 channels
    Channel layout              : L R C LFE Ls Rs
    Sampling rate               : 48.0 kHz
    Frame rate                  : 31.250 FPS (1536 SPF)
    Bit depth                   : 16 bits
    Compression mode            : Lossy
    Stream size                 : 518 MiB (3%)
    Title                       : AC3_5.1_Bluray_Esp
    Language                    : Spanish
    Service kind                : Complete Main
    Default                     : Yes
    Forced                      : Yes

    Audio #2
    ID                          : 3
    Format                      : DTS XLL
    Format/Info                 : Digital Theater Systems
    Commercial name             : DTS-HD Master Audio
    Codec ID                    : A_DTS
    Duration                    : 1 h 53 min
    Bit rate mode               : Variable
    Bit rate                    : 4 502 kb/s
    Channel(s)                  : 6 channels
    Channel layout              : C L R Ls Rs LFE
    Sampling rate               : 48.0 kHz
    Frame rate                  : 93.750 FPS (512 SPF)
    Bit depth                   : 24 bits
    Compression mode            : Lossless
    Stream size                 : 3.56 GiB (19%)
    Title                       : DTS-HD_5.1_Bluray_Eng
    Language                    : English
    Default                     : No
    Forced                      : No

    Text #1
    ID                          : 4
    Format                      : PGS
    Muxing mode                 : zlib
    Codec ID                    : S_HDMV/PGS
    Codec ID/Info               : Picture based subtitle format used on BDs/HD-DVDs
    Duration                    : 1 h 52 min
    Bit rate                    : 47.6 kb/s
    Count of elements           : 2534
    Stream size                 : 38.4 MiB (0%)
    Title                       : Sub_Esp [PGS]
    Language                    : Spanish
    Default                     : No
    Forced                      : No

    Text #2
    ID                          : 5
    Format                      : PGS
    Muxing mode                 : zlib
    Codec ID                    : S_HDMV/PGS
    Codec ID/Info               : Picture based subtitle format used on BDs/HD-DVDs
    Duration                    : 1 h 52 min
    Bit rate                    : 40.4 kb/s
    Count of elements           : 2992
    Stream size                 : 32.5 MiB (0%)
    Title                       : Sub_Eng [PGS]
    Language                    : English
    Default                     : No
    Forced                      : No

    Text #3
    ID                          : 6
    Format                      : UTF-8
    Codec ID                    : S_TEXT/UTF8
    Codec ID/Info               : UTF-8 Plain Text
    Duration                    : 1 h 8 min
    Bit rate                    : 0 b/s
    Count of elements           : 2
    Stream size                 : 47.0 Bytes (0%)
    Title                       : Sub_Forzados
    Language                    : Spanish
    Default                     : Yes
    Forced                      : Yes

    Text #4
    ID                          : 7
    Format                      : UTF-8
    Codec ID                    : S_TEXT/UTF8
    Codec ID/Info               : UTF-8 Plain Text
    Duration                    : 1 h 52 min
    Bit rate                    : 59 b/s
    Count of elements           : 1267
    Stream size                 : 49.4 KiB (0%)
    Title                       : Sub_Esp
    Language                    : Spanish
    Default                     : No
    Forced                      : No

    Menu
    00:00:00.000                : en:Presenting Princess Mia
    00:09:47.878                : en:The Law Of Genovia
    00:17:43.187                : en:Looking For Prince Charming
    00:31:55.788                : en:Private Conversations
    00:35:54.443                : en:Queen Lessons
    00:45:33.856                : en:The Garden Party
    00:52:37.404                : en:Princess For A Day
    01:00:02.056                : en:The Bridal Shower
    01:08:09.126                : en:A Romantic Evening
    01:19:08.452                : en:Repercussions
    01:26:03.533                : en:The Rpyal Wedding
    01:41:44.139                : en:Corronation Day / End Credits

  • Peso: 19.1 GiB

Sinopsis

Decargar El Diario De La Princesa 2 (2004) REMUX 1080p Latino. Mia (Anne Hathaway) ya está preparada para ser princesa de Genovia. Sin embargo, nada más instalarse en el Palacio Real con su bella y sabia abuela, la Reina Clarisse (Julie Andrews), se entera de que tendrá que prepararse inmediatamente para ser reina. Pero, entonces, tendrá que afrontar un peliagudo problema: en Genovia hay una ley que establece que las princesas tienen que casarse antes de ser coronadas; así que Mia tendrá que soportar un desfile de pretendientes cuya única aspiración es ocupar el trono.

Ficha técnica

Video trailer de la película

Enlaces de descarga

Rip de Bluray

Descargar El Diario De La Princesa 2 (2004) REMUX 1080p Latino




Aportes de DPeliculasHDmega la pass es:dpeliculashdmega.org Aportes de CinemaniaHD la pass es:cinemaniahdd.com
Guardado en : Comedia , Drama , Familia , Remux , Romance

Películas relacionadas

  • Mi amigo el dragón (2016) Full HD 1080p Latino

    Mi amigo el dragón (2016) Full HD 1080p Latino

    2016
    Mi amigo el dragón (2016) Full HD 1080p Latino

    1h 43m 2016

    Descargar Mi amigo el dragón (2016) Full HD 1080p Latino. Durante años el Sr. Meacham, un viejo tallador...

    Director: Joe Nolan

    Género: Aventura

    Actores: William J. Rawbone

  • Mi amigo el dragón (2016) REMUX 1080p Latino

    Mi amigo el dragón (2016) REMUX 1080p Latino

    2016
    Mi amigo el dragón (2016) REMUX 1080p Latino

    1h 43m 2016

    Descargar Mi amigo el dragón (2016) REMUX 1080p Latino. Durante años el Sr. Meacham, un viejo tallador...

    Director: Joe Nolan

    Género: Aventura

    Actores: William J. Rawbone

  • El discurso del Rey (2010) 1080p Latino

    El discurso del Rey (2010) 1080p Latino

    2010
    El discurso del Rey (2010) 1080p Latino

    1h 58m 2010

    Descargar El discurso del Rey (2010) 1080p Latino. El duque de York se convirtió en rey de Gran Bretaña...

    Director: Tom Hooper

    Género: Drama

    Actores: Tony Earnshaw

  • El discurso del Rey (2010) Full HD 1080p Latino

    El discurso del Rey (2010) Full HD 1080p Latino

    2010
    El discurso del Rey (2010) Full HD 1080p Latino

    1h 58m 2010

    Descargar El discurso del Rey (2010) Full HD 1080p Latino. El duque de York se convirtió en rey de Gran...

    Director: Tom Hooper

    Género: Drama

    Actores: Tony Earnshaw

  • El discurso del Rey (2010) REMUX 1080p Latino

    El discurso del Rey (2010) REMUX 1080p Latino

    2010
    El discurso del Rey (2010) REMUX 1080p Latino

    1h 58m 2010

    Descargar El discurso del Rey (2010) REMUX 1080p Latino. El duque de York se convirtió en rey de Gran...

    Director: Tom Hooper

    Género: Drama

    Actores: Tony Earnshaw

descargar El Diario De La Princesa 2 (2004) REMUX 1080p Latino Full 1080p 1080p gratis, El Diario De La Princesa 2 (2004) REMUX 1080p Latino Full 1080p mega 1 link, El Diario De La Princesa 2 (2004) REMUX 1080p Latino Full 1080p pelicula completa, descargar El Diario De La Princesa 2 (2004) REMUX 1080p Latino Full 1080p gratis en mega.

El Diario De La Princesa 2 (2004) REMUX 1080p Latino pelicula full hd, El Diario De La Princesa 2 (2004) REMUX 1080p Latino mega latino, El Diario De La Princesa 2 (2004) REMUX 1080p Latino 4k latino, El Diario De La Princesa 2 (2004) REMUX 1080p Latino pelicula completa, El Diario De La Princesa 2 (2004) REMUX 1080p Latino descargar gratis, descargar El Diario De La Princesa 2 (2004) REMUX 1080p Latino pelicula latino, El Diario De La Princesa 2 (2004) REMUX 1080p Latino 1 link mega, El Diario De La Princesa 2 (2004) REMUX 1080p Latino 1 link google drive, El Diario De La Princesa 2 (2004) REMUX 1080p Latino hd 1080p latino.
Comentarios 0