×

¿Problemas para descargar con Mozilla, EDGE? Deshabilita la opción "Abrir vinculos en una pestaña nueva" tal como lo muestra ésta imagen.

El Diario De La Princesa 2 (2004) Web-DL 4K UHD HDR Latino

538 vistas

Información de El Diario De La Princesa 2 (2004) Web-DL 4K UHD HDR Latino

Datos de la película

  • Calidad: 4K HDR
  • Audio: Se especifica abajo de la Sinopsis
  • Subtitulos: Español Latino SRT - Ingles SRT
  • Resolución: 3840x2160p
  • Formato: MKV
  • Codec: HEVC
  • Encoder: CinefiloCool
  • Mediainfo: Clic para Mostrar Datos Ver
  • El Diario de la Princesa 2 (2004) Web-DL UHD HDR Latino-CMHDD.mkv
    Format                      : Matroska
    Format version              : Version 4
    File size                   : 13.7 GiB
    Duration                    : 1 h 54 min
    Overall bit rate            : 17.1 Mb/s
    Movie name                  : CinemaniaHDD.Net
    Encoded date                : UTC 2020-03-05 03:20:46
    Writing application         : mkvmerge v42.0.0 ('Overtime') 64-bit
    Writing library             : libebml v1.3.10 + libmatroska v1.5.2
    Attachments                 : CINEMANIAHD.png

    Video
    ID                          : 1
    Format                      : HEVC
    Format/Info                 : High Efficiency Video Coding
    Format profile              : Main 10@L5@High
    Codec ID                    : V_MPEGH/ISO/HEVC
    Duration                    : 1 h 54 min
    Bit rate                    : 16.3 Mb/s
    Width                       : 3 840 pixels
    Height                      : 2 160 pixels
    Display aspect ratio        : 16:9
    Frame rate mode             : Constant
    Frame rate                  : 23.976 (24000/1001) FPS
    Color space                 : YUV
    Chroma subsampling          : 4:2:0
    Bit depth                   : 10 bits
    Bits/(Pixel*Frame)          : 0.082
    Stream size                 : 13.0 GiB (95%)
    Title                       : 2160p HDR [Web]
    Default                     : Yes
    Forced                      : Yes
    Color range                 : Limited
    Color primaries             : BT.2020
    Transfer characteristics    : PQ
    Matrix coefficients         : BT.2020 non-constant

    Audio #1
    ID                          : 2
    Format                      : AC-3
    Format/Info                 : Audio Coding 3
    Commercial name             : Dolby Digital
    Codec ID                    : A_AC3
    Duration                    : 1 h 53 min
    Bit rate mode               : Constant
    Bit rate                    : 640 kb/s
    Channel(s)                  : 6 channels
    Channel layout              : L R C LFE Ls Rs
    Sampling rate               : 48.0 kHz
    Frame rate                  : 31.250 FPS (1536 SPF)
    Bit depth                   : 16 bits
    Compression mode            : Lossy
    Delay relative to video     : 9 ms
    Stream size                 : 518 MiB (4%)
    Title                       : AC3_5.1_Bluray_Esp
    Language                    : Spanish
    Service kind                : Complete Main
    Default                     : Yes
    Forced                      : Yes

    Audio #2
    ID                          : 3
    Format                      : E-AC-3
    Format/Info                 : Enhanced AC-3
    Commercial name             : Dolby Digital Plus
    Codec ID                    : A_EAC3
    Duration                    : 1 h 54 min
    Bit rate mode               : Constant
    Bit rate                    : 256 kb/s
    Channel(s)                  : 6 channels
    Channel layout              : L R C LFE Ls Rs
    Sampling rate               : 48.0 kHz
    Frame rate                  : 31.250 FPS (1536 SPF)
    Compression mode            : Lossy
    Stream size                 : 209 MiB (1%)
    Title                       : DDP_5.1_Web_Eng
    Language                    : English
    Service kind                : Complete Main
    Default                     : No
    Forced                      : No

    Text #1
    ID                          : 4
    Format                      : UTF-8
    Codec ID                    : S_TEXT/UTF8
    Codec ID/Info               : UTF-8 Plain Text
    Duration                    : 1 h 8 min
    Bit rate                    : 0 b/s
    Count of elements           : 2
    Stream size                 : 47.0 Bytes (0%)
    Title                       : Sub_Forzados
    Language                    : Spanish
    Default                     : Yes
    Forced                      : Yes

    Text #2
    ID                          : 5
    Format                      : UTF-8
    Codec ID                    : S_TEXT/UTF8
    Codec ID/Info               : UTF-8 Plain Text
    Duration                    : 1 h 52 min
    Bit rate                    : 59 b/s
    Count of elements           : 1267
    Stream size                 : 49.4 KiB (0%)
    Title                       : Sub_Esp
    Language                    : Spanish
    Default                     : No
    Forced                      : No

    Text #3
    ID                          : 6
    Format                      : UTF-8
    Codec ID                    : S_TEXT/UTF8
    Codec ID/Info               : UTF-8 Plain Text
    Duration                    : 1 h 53 min
    Bit rate                    : 67 b/s
    Count of elements           : 1572
    Stream size                 : 55.6 KiB (0%)
    Title                       : Sub_Eng
    Language                    : English
    Default                     : No
    Forced                      : No

    Menu
    00:00:00.000                : en:Presenting Princess Mia
    00:09:46.927                : en:The Law Of Genovia
    00:17:42.236                : en:Looking For Prince Charming
    00:31:54.837                : en:Private Conversations
    00:35:53.492                : en:Queen Lessons
    00:45:32.905                : en:The Garden Party
    00:52:36.453                : en:Princess For A Day
    01:00:01.105                : en:The Bridal Shower
    01:08:08.175                : en:A Romantic Evening
    01:19:07.501                : en:Repercussions
    01:26:02.582                : en:The Rpyal Wedding
    01:41:43.188                : en:Corronation Day / End Credits

  • Peso: 13.7 GiB

Sinopsis

Descargar El Diario De La Princesa 2 (2004) Web-DL 4K UHD HDR Latino. Mia (Anne Hathaway) ya está preparada para ser princesa de Genovia. Sin embargo, nada más instalarse en el Palacio Real con su bella y sabia abuela, la Reina Clarisse (Julie Andrews), se entera de que tendrá que prepararse inmediatamente para ser reina. Pero, entonces, tendrá que afrontar un peliagudo problema: en Genovia hay una ley que establece que las princesas tienen que casarse antes de ser coronadas; así que Mia tendrá que soportar un desfile de pretendientes cuya única aspiración es ocupar el trono.

Audio Español Latino AC3 5.1 Bluray – Ingles EAC3 5.1 Web-DL

Ficha técnica

Video trailer de la película

Enlaces de descarga

Rip de Bluray

Descargar El Diario De La Princesa 2 (2004) Web-DL 4K UHD HDR Latino




Aportes de DPeliculasHDmega la pass es:dpeliculashdmega.org Aportes de CinemaniaHD la pass es:cinemaniahdd.com
Guardado en : 4K HDR , 4K UHD , Comedia , Drama , Familia , Romance

Películas relacionadas

descargar El Diario De La Princesa 2 (2004) Web-DL 4K UHD HDR Latino 4K HDR 1080p gratis, El Diario De La Princesa 2 (2004) Web-DL 4K UHD HDR Latino 4K HDR mega 1 link, El Diario De La Princesa 2 (2004) Web-DL 4K UHD HDR Latino 4K HDR pelicula completa, descargar El Diario De La Princesa 2 (2004) Web-DL 4K UHD HDR Latino 4K HDR gratis en mega.

El Diario De La Princesa 2 (2004) Web-DL 4K UHD HDR Latino pelicula full hd, El Diario De La Princesa 2 (2004) Web-DL 4K UHD HDR Latino mega latino, El Diario De La Princesa 2 (2004) Web-DL 4K UHD HDR Latino 4k latino, El Diario De La Princesa 2 (2004) Web-DL 4K UHD HDR Latino pelicula completa, El Diario De La Princesa 2 (2004) Web-DL 4K UHD HDR Latino descargar gratis, descargar El Diario De La Princesa 2 (2004) Web-DL 4K UHD HDR Latino pelicula latino, El Diario De La Princesa 2 (2004) Web-DL 4K UHD HDR Latino 1 link mega, El Diario De La Princesa 2 (2004) Web-DL 4K UHD HDR Latino 1 link google drive, El Diario De La Princesa 2 (2004) Web-DL 4K UHD HDR Latino hd 1080p latino.
Comentarios 0