×

¿Problemas para descargar con Mozilla, EDGE? Deshabilita la opción "Abrir vinculos en una pestaña nueva" tal como lo muestra ésta imagen.

La Princesa Prometida (1987) REMUX 1080p Latino

30 vistas

Información de La Princesa Prometida (1987) REMUX 1080p Latino

Datos de la película

  • Calidad: Full 1080p
  • Audio: Se especifica abajo de la Sinopsis
  • Subtitulos: Español Latino SRT- FORZADOS SRT
  • Resolución: 1920x1080p
  • Formato: MKV
  • Codec: H.264
  • Encoder: CinefiloCool
  • Mediainfo: Clic para Mostrar Datos Ver
  • La Princesa Prometida (1987) REMUX 1080p Latino-CMHDD.mkv Format                      : Matroska Format version              : Version 4 File size                   : 26.3 GiB Duration                    : 1 h 38 min Overall bit rate mode       : Variable Overall bit rate            : 38.2 Mb/s Movie name                  : The Princess Bride (1987) CinemaniaHDD.Net Encoded date                : UTC 2023-01-16 06:45:19 Writing application         : mkvmerge v56.1.0 ('My Friend') 64-bit Writing library             : libebml v1.4.2 + libmatroska v1.6.4 Attachments                 : CINEMANIAHD.png Video ID                          : 1 ID in the original source m : 4113 (0x1011) Format                      : AVC Format/Info                 : Advanced Video Codec Format profile              : High@L4.1 Format settings             : CABAC / 4 Ref Frames Format settings, CABAC      : Yes Format settings, Reference  : 4 frames Codec ID                    : V_MPEG4/ISO/AVC Duration                    : 1 h 38 min Bit rate mode               : Variable Bit rate                    : 33.9 Mb/s Maximum bit rate            : 37.0 Mb/s Width                       : 1 920 pixels Height                      : 1 080 pixels Display aspect ratio        : 16:9 Frame rate mode             : Constant Frame rate                  : 23.976 (24000/1001) FPS Color space                 : YUV Chroma subsampling          : 4:2:0 Bit depth                   : 8 bits Scan type                   : Progressive Bits/(Pixel*Frame)          : 0.681 Stream size                 : 23.3 GiB (89%) Title                       : REMUX HD1080p [CinemaniaHDD] Default                     : Yes Forced                      : Yes Original source medium      : Blu-ray Audio #1 ID                          : 2 Format                      : AC-3 Format/Info                 : Audio Coding 3 Commercial name             : Dolby Digital Codec ID                    : A_AC3 Duration                    : 1 h 38 min Bit rate mode               : Constant Bit rate                    : 256 kb/s Channel(s)                  : 2 channels Channel layout              : L R Sampling rate               : 48.0 kHz Frame rate                  : 31.250 FPS (1536 SPF) Compression mode            : Lossy Stream size                 : 181 MiB (1%) Title                       : Español Latino Dub ORG MX [CinemaniaHDD] Language                    : Spanish Service kind                : Complete Main Default                     : Yes Forced                      : Yes Audio #2 ID                          : 3 Format                      : AC-3 Format/Info                 : Audio Coding 3 Commercial name             : Dolby Digital Codec ID                    : A_AC3 Duration                    : 1 h 38 min Bit rate mode               : Constant Bit rate                    : 256 kb/s Channel(s)                  : 2 channels Channel layout              : L R Sampling rate               : 48.0 kHz Frame rate                  : 31.250 FPS (1536 SPF) Compression mode            : Lossy Stream size                 : 181 MiB (1%) Title                       : Español Latino ReDub L.A. [CinemaniaHDD] Language                    : Spanish Service kind                : Complete Main Default                     : No Forced                      : No Audio #3 ID                          : 4 ID in the original source m : 4352 (0x1100) Format                      : DTS XLL Format/Info                 : Digital Theater Systems Commercial name             : DTS-HD Master Audio Codec ID                    : A_DTS Duration                    : 1 h 38 min Bit rate mode               : Variable Bit rate                    : 3 837 kb/s Channel(s)                  : 6 channels Channel layout              : C L R Ls Rs LFE Sampling rate               : 48.0 kHz Frame rate                  : 93.750 FPS (512 SPF) Bit depth                   : 24 bits Compression mode            : Lossless Stream size                 : 2.64 GiB (10%) Title                       : Ingles [CinemaniaHDD] Language                    : English Default                     : No Forced                      : No Original source medium      : Blu-ray Text #1 ID                          : 5 Format                      : UTF-8 Codec ID                    : S_TEXT/UTF8 Codec ID/Info               : UTF-8 Plain Text Duration                    : 55 min 25 s Bit rate                    : 5 b/s Count of elements           : 48 Stream size                 : 2.13 KiB (0%) Title                       : Forzados-SRT [CinemaniaHDD] Language                    : Spanish Default                     : Yes Forced                      : Yes Text #2 ID                          : 6 Format                      : UTF-8 Codec ID                    : S_TEXT/UTF8 Codec ID/Info               : UTF-8 Plain Text Duration                    : 1 h 32 min Bit rate                    : 68 b/s Count of elements           : 1192 Stream size                 : 46.1 KiB (0%) Title                       : Español-SRT [CinemaniaHDD] Language                    : Spanish Default                     : No Forced                      : No Text #3 ID                          : 7 ID in the original source m : 4608 (0x1200) Format                      : PGS Muxing mode                 : zlib Codec ID                    : S_HDMV/PGS Codec ID/Info               : Picture based subtitle format used on BDs/HD-DVDs Duration                    : 1 h 37 min Bit rate                    : 57.8 kb/s Count of elements           : 2682 Stream size                 : 40.2 MiB (0%) Title                       : Ingles-PGS [CinemaniaHDD] Language                    : English Default                     : No Forced                      : No Original source medium      : Blu-ray Menu 00:00:00.000                : Chapter 01 00:02:30.984                : Chapter 02 00:05:58.691                : Chapter 03 00:07:40.877                : Chapter 04 00:10:16.949                : Chapter 05 00:13:40.820                : Chapter 06 00:17:38.182                : Chapter 07 00:22:00.068                : Chapter 08 00:25:21.561                : Chapter 09 00:29:45.450                : Chapter 10 00:35:12.610                : Chapter 11 00:40:48.112                : Chapter 12 00:45:17.631                : Chapter 13 00:48:25.903                : Chapter 14 00:50:44.458                : Chapter 15 00:52:25.642                : Chapter 16 00:57:41.666                : Chapter 17 01:00:48.478                : Chapter 18 01:04:01.045                : Chapter 19 01:07:16.615                : Chapter 20 01:10:23.385                : Chapter 21 01:14:48.901                : Chapter 22 01:18:07.391                : Chapter 23 01:21:18.456                : Chapter 24 01:27:41.547                : Chapter 25 01:30:32.135                : Chapter 26
  • Peso: 26.3 GiB

Sinopsis

Descargar La Princesa Prometida (1987) REMUX 1080p Latino. Después de buscar fortuna durante cinco años, Westley retorna a su tierra para casarse con su amada, la bella Buttercup, a la que había jurado amor eterno. Sin embargo, para recuperarla habrá de enfrentarse a Vizzini y sus esbirros. Una vez derrotados éstos, tendrá que superar el peor de los obstáculos: el príncipe Humperdinck pretende desposar a la desdichada Buttercup, pese a que ella no lo ama, ya que sigue enamorada de Westley.

Audio Español Latino Dub ORG MX AC3 2.0 – Redub AC3 2.0 L.A. – Ingles DTS-HD 5.1 Bluray

Ficha técnica

Video trailer de la película

Enlaces de descarga

Rip de Bluray

Descargar La Princesa Prometida (1987) REMUX 1080p Latino


Aportes de DPeliculasHDmega la pass es:dpeliculashdmega.org Aportes de CinemaniaHD la pass es:cinemaniahdd.com
Guardado en : Aventura , Comedia , Familia , Fantasía , Remux , Romance

Películas relacionadas

  • Transfusion (2023) REMUX 1080p Latino

    Transfusion (2023) REMUX 1080p Latino

    2023
    Transfusion (2023) REMUX 1080p Latino

    1h 45m 2023

    Descargar Transfusion (2023) REMUX 1080p Latino. Un antiguo agente de las Fuerzas Especiales se ve empujado...

    Director: Matt Nable

    Género: Crimen

    Actores: Trystan Go

  • Gladiador (2000) EXTENDED CUT 1080p Latino

    Gladiador (2000) EXTENDED CUT 1080p Latino

    2000
    Gladiador (2000) EXTENDED CUT 1080p Latino

    2h 35m 2000

    Gladiador (2000) EXTENDED CUT 1080p Latino. Máximo, General de las Legiones Romanas, es querido por...

    Director: Ridley Scott

    Género: Acción

    Actores: Tony Curran

  • Gladiador (2000) EXTENDED CUT Full HD 1080p Latino

    Gladiador (2000) EXTENDED CUT Full HD 1080p Latino

    2000
    Gladiador (2000) EXTENDED CUT Full HD 1080p Latino

    2h 35m 2000

    Descargar Gladiador (2000) [Extended Cut] Full HD 1080p Latino. Máximo, General de las Legiones Romanas,...

    Director: Ridley Scott

    Género: Acción

    Actores: Tony Curran

descargar La Princesa Prometida (1987) REMUX 1080p Latino Full 1080p 1080p gratis, La Princesa Prometida (1987) REMUX 1080p Latino Full 1080p mega 1 link, La Princesa Prometida (1987) REMUX 1080p Latino Full 1080p pelicula completa, descargar La Princesa Prometida (1987) REMUX 1080p Latino Full 1080p gratis en mega.

La Princesa Prometida (1987) REMUX 1080p Latino pelicula full hd, La Princesa Prometida (1987) REMUX 1080p Latino mega latino, La Princesa Prometida (1987) REMUX 1080p Latino 4k latino, La Princesa Prometida (1987) REMUX 1080p Latino pelicula completa, La Princesa Prometida (1987) REMUX 1080p Latino descargar gratis, descargar La Princesa Prometida (1987) REMUX 1080p Latino pelicula latino, La Princesa Prometida (1987) REMUX 1080p Latino 1 link mega, La Princesa Prometida (1987) REMUX 1080p Latino 1 link google drive, La Princesa Prometida (1987) REMUX 1080p Latino hd 1080p latino.
Comentarios 0