×

¿Problemas para descargar con Mozilla, EDGE? Deshabilita la opción "Abrir vinculos en una pestaña nueva" tal como lo muestra ésta imagen.

The Postman Always Rings Twice (1946) REMUX 1080p Latino – CMHDD

132 vistas

Información de The Postman Always Rings Twice (1946) REMUX 1080p Latino – CMHDD

Datos de la película

  • Calidad: Full 1080p
  • Audio: Se especifica abajo de la Sinopsis
  • Subtitulos: Español Latino PGS
  • Resolución: 1920x1080p
  • Formato: MKV
  • Codec: H.264
  • Encoder: Dracarys
  • Mediainfo: Clic para Mostrar Datos Ver
  • Format                      : Matroska
    Format version              : Version 4
    File size                   : 20.5 GiB
    Duration                    : 1 h 52 min
    Overall bit rate mode       : Variable
    Overall bit rate            : 26.0 Mb/s
    Movie name                  : The Postman Always Rings Twice (1946) REMUX 1080p Latino - CMHDD
    Encoded date                : UTC 2021-07-27 01:40:41
    Writing application         : mkvmerge v56.1.0 ('My Friend') 64-bit
    Writing library             : libebml v1.4.2 + libmatroska v1.6.4
    Cover                       : Yes
    Attachments                 : cover.jpg

    Video
    ID                          : 1
    ID in the original source m : 4113 (0x1011)
    Format                      : AVC
    Format/Info                 : Advanced Video Codec
    Format profile              : High@L4.1
    Format settings             : CABAC / 2 Ref Frames
    Format settings, CABAC      : Yes
    Format settings, Reference  : 2 frames
    Format settings, GOP        : M=1, N=10
    Codec ID                    : V_MPEG4/ISO/AVC
    Duration                    : 1 h 52 min
    Bit rate mode               : Variable
    Bit rate                    : 24.8 Mb/s
    Width                       : 1 920 pixels
    Height                      : 1 080 pixels
    Display aspect ratio        : 16:9
    Frame rate mode             : Constant
    Frame rate                  : 23.976 (24000/1001) FPS
    Color space                 : YUV
    Chroma subsampling          : 4:2:0
    Bit depth                   : 8 bits
    Scan type                   : Progressive
    Bits/(Pixel*Frame)          : 0.498
    Stream size                 : 19.5 GiB (95%)
    Default                     : Yes
    Forced                      : No
    Original source medium      : Blu-ray

    Audio #1
    ID                          : 2
    ID in the original source m : 4352 (0x1100)
    Format                      : DTS XLL
    Format/Info                 : Digital Theater Systems
    Commercial name             : DTS-HD Master Audio
    Codec ID                    : A_DTS
    Duration                    : 1 h 52 min
    Bit rate mode               : Variable
    Bit rate                    : 1 037 kb/s
    Channel(s)                  : 1 channel
    Channel layout              : C
    Sampling rate               : 48.0 kHz
    Frame rate                  : 93.750 FPS (512 SPF)
    Bit depth                   : 24 bits
    Compression mode            : Lossless
    Stream size                 : 838 MiB (4%)
    Language                    : English
    Default                     : No
    Forced                      : No
    Original source medium      : Blu-ray

    Audio #2
    ID                          : 3
    ID in the original source m : 4357 (0x1105)
    Format                      : AC-3
    Format/Info                 : Audio Coding 3
    Commercial name             : Dolby Digital
    Codec ID                    : A_AC3
    Duration                    : 1 h 52 min
    Bit rate mode               : Constant
    Bit rate                    : 192 kb/s
    Channel(s)                  : 1 channel
    Channel layout              : C
    Sampling rate               : 48.0 kHz
    Frame rate                  : 31.250 FPS (1536 SPF)
    Compression mode            : Lossy
    Stream size                 : 155 MiB (1%)
    Language                    : Spanish
    Service kind                : Complete Main
    Default                     : Yes
    Forced                      : No
    Original source medium      : Blu-ray

    Text
    ID                          : 4
    ID in the original source m : 4614 (0x1206)
    Format                      : PGS
    Muxing mode                 : zlib
    Codec ID                    : S_HDMV/PGS
    Codec ID/Info               : Picture based subtitle format used on BDs/HD-DVDs
    Duration                    : 1 h 52 min
    Bit rate                    : 26.1 kb/s
    Count of elements           : 2760
    Stream size                 : 21.0 MiB (0%)
    Language                    : Spanish
    Default                     : No
    Forced                      : No
    Original source medium      : Blu-ray

    Menu
    00:00:00.000                : Chapter 01
    00:01:19.579                : Chapter 02
    00:04:06.537                : Chapter 03
    00:05:55.563                : Chapter 04
    00:09:39.912                : Chapter 05
    00:12:27.872                : Chapter 06
    00:15:46.236                : Chapter 07
    00:18:24.937                : Chapter 08
    00:21:48.265                : Chapter 09
    00:25:50.340                : Chapter 10
    00:29:01.990                : Chapter 11
    00:32:44.462                : Chapter 12
    00:37:15.024                : Chapter 13
    00:41:05.963                : Chapter 14
    00:46:39.171                : Chapter 15
    00:52:33.942                : Chapter 16
    00:57:24.732                : Chapter 17
    01:01:37.610                : Chapter 18
    01:03:58.835                : Chapter 19
    01:09:02.054                : Chapter 20
    01:12:33.974                : Chapter 21
    01:17:32.105                : Chapter 22
    01:20:03.673                : Chapter 23
    01:24:37.989                : Chapter 24
    01:27:32.330                : Chapter 25
    01:30:36.931                : Chapter 26
    01:32:53.150                : Chapter 27
    01:36:34.246                : Chapter 28
    01:40:45.497                : Chapter 29
    01:45:30.324                : Chapter 30
    01:47:35.574                : Chapter 31
    01:51:19.756                : Chapter 32

  • Peso: 20.5 GiB

Sinopsis

Durante la Gran Depresión, Frank Chambers, un hombre sin rumbo, comienza a trabajar en un bar de carretera, regentado por un hombre mayor y por Cora, su joven, bella e infeliz esposa.

 

Latino: AC3 1.0  –  Ingles: DTS-HD MA 1.0

Ficha técnica

Video trailer de la película

Enlaces de descarga

Rip de Bluray

Descargar The Postman Always Rings Twice (1946) REMUX 1080p Latino – CMHDD


Aportes de DPeliculasHDmega la pass es:dpeliculashdmega.org Aportes de CinemaniaHD la pass es:cinemaniahdd.com
Guardado en : Crimen , Drama , Misterio , Romance , Suspenso

Películas relacionadas

  • Blonde (2022) NF WEB-DL 1080p Latino

    Blonde (2022) NF WEB-DL 1080p Latino

    2022
    Blonde (2022) NF WEB-DL 1080p Latino

    2h 46m 2022

    Descargar Blonde (2022) NF WEB-DL 1080p Latino. Basada en el bestseller de la cinco veces finalista al...

    Director: Kristin Bree Calabrese

    Género: Drama

    Actores: Xavier Samuel

  • La Máquina infernal (2022) WEB-DL 1080p Latino

    La Máquina infernal (2022) WEB-DL 1080p Latino

    2022
    La Máquina infernal (2022) WEB-DL 1080p Latino

    1h 47m 2022

    Descargar La Máquina infernal (2022) WEB-DL 1080p Latino. Un fan obsesivo saca de su escondite al solitario...

    Director: Andrew Hunt

    Género: Suspenso

    Actores: Rocco Salata

  • Borrego: Sal Del Camino (2022) HD 1080p Latino

    Borrego: Sal Del Camino (2022) HD 1080p Latino

    2022
    Borrego: Sal Del Camino (2022) HD 1080p Latino

    1h 42m 2022

    Descargar Borrego: Sal Del Camino (2022) HD 1080p Latino. Una joven botánica se traslada a un pequeño...

    Director: Jesse Harris

    Género: Crimen

    Actores: Olivia Trujillo

  • Borrego: Sal Del Camino (2022) REMUX 1080p Latino

    Borrego: Sal Del Camino (2022) REMUX 1080p Latino

    2022
    Borrego: Sal Del Camino (2022) REMUX 1080p Latino

    1h 42m 2022

    Descargar Borrego: Sal Del Camino (2022) REMUX 1080p Latino. Una joven botánica se traslada a un pequeño...

    Director: Jesse Harris

    Género: Crimen

    Actores: Olivia Trujillo

descargar The Postman Always Rings Twice (1946) REMUX 1080p Latino – CMHDD Full 1080p 1080p gratis, The Postman Always Rings Twice (1946) REMUX 1080p Latino – CMHDD Full 1080p mega 1 link, The Postman Always Rings Twice (1946) REMUX 1080p Latino – CMHDD Full 1080p pelicula completa, descargar The Postman Always Rings Twice (1946) REMUX 1080p Latino – CMHDD Full 1080p gratis en mega.

The Postman Always Rings Twice (1946) REMUX 1080p Latino – CMHDD pelicula full hd, The Postman Always Rings Twice (1946) REMUX 1080p Latino – CMHDD mega latino, The Postman Always Rings Twice (1946) REMUX 1080p Latino – CMHDD 4k latino, The Postman Always Rings Twice (1946) REMUX 1080p Latino – CMHDD pelicula completa, The Postman Always Rings Twice (1946) REMUX 1080p Latino – CMHDD descargar gratis, descargar The Postman Always Rings Twice (1946) REMUX 1080p Latino – CMHDD pelicula latino, The Postman Always Rings Twice (1946) REMUX 1080p Latino – CMHDD 1 link mega, The Postman Always Rings Twice (1946) REMUX 1080p Latino – CMHDD 1 link google drive, The Postman Always Rings Twice (1946) REMUX 1080p Latino – CMHDD hd 1080p latino.
Comentarios 0