×

¿Problemas para descargar con Mozilla, EDGE? Deshabilita la opción "Abrir vinculos en una pestaña nueva" tal como lo muestra ésta imagen.

The Plot Against America (2020) Temporada 1 AMZN WEB-DL 1080p Latino

2.500 vistas

Información de The Plot Against America (2020) Temporada 1 AMZN WEB-DL 1080p Latino

Datos de la película

  • Calidad: WEBDL
  • Audio: Español Latino AC3 2.0 - Ingles AC3 5.1 HBO
  • Subtitulos: Español Latino SRT- FORZADOS SRT
  • Resolución: 1920x1080
  • Formato: MKV
  • Codec: H.264
  • Encoder: cinemaniahdd
  • Mediainfo: Clic para Mostrar Datos Ver
  • The Plot Against America T01E01 AMZN WEB-DL 1080p Latino.mkv
    Format                      : Matroska
    Format version              : Version 4
    File size                   : 4.17 GiB
    Duration                    : 58 min 37 s
    Overall bit rate            : 10.2 Mb/s
    Movie name                  : The Plot Against America T01E01 - CinemaniaHDD.Net
    Encoded date                : UTC 2020-03-17 05:21:24
    Writing application         : mkvmerge v42.0.0 ('Overtime') 64-bit
    Writing library             : libebml v1.3.10 + libmatroska v1.5.2

    Video
    ID                          : 1
    Format                      : AVC
    Format/Info                 : Advanced Video Codec
    Format profile              : High@L4
    Format settings             : CABAC / 4 Ref Frames
    Format settings, CABAC      : Yes
    Format settings, ReFrames   : 4 frames
    Codec ID                    : V_MPEG4/ISO/AVC
    Duration                    : 58 min 36 s
    Bit rate mode               : Constant
    Bit rate                    : 9 298 kb/s
    Nominal bit rate            : 10 000 kb/s
    Width                       : 1 920 pixels
    Height                      : 1 080 pixels
    Display aspect ratio        : 16:9
    Frame rate mode             : Constant
    Frame rate                  : 23.976 (23976/1000) FPS
    Original frame rate         : 23.976 (24000/1001) FPS
    Color space                 : YUV
    Chroma subsampling          : 4:2:0
    Bit depth                   : 8 bits
    Scan type                   : Progressive
    Bits/(Pixel*Frame)          : 0.187
    Stream size                 : 3.81 GiB (91%)
    Title                       : CinemaniaHDD
    Default                     : Yes
    Forced                      : No
    Color range                 : Limited
    Color primaries             : BT.709
    Transfer characteristics    : BT.709
    Matrix coefficients         : BT.709

    Audio #1
    ID                          : 2
    Format                      : AC-3
    Format/Info                 : Audio Coding 3
    Commercial name             : Dolby Digital
    Codec ID                    : A_AC3
    Duration                    : 58 min 36 s
    Bit rate mode               : Constant
    Bit rate                    : 256 kb/s
    Channel(s)                  : 2 channels
    Channel layout              : L R
    Sampling rate               : 48.0 kHz
    Frame rate                  : 31.250 FPS (1536 SPF)
    Bit depth                   : 16 bits
    Compression mode            : Lossy
    Delay relative to video     : -1 s 14 ms
    Stream size                 : 107 MiB (3%)
    Title                       : Español latino [CinemaniaHDD]
    Language                    : Spanish
    Service kind                : Complete Main
    Default                     : Yes
    Forced                      : No

    Audio #2
    ID                          : 3
    Format                      : E-AC-3
    Format/Info                 : Enhanced AC-3
    Commercial name             : Dolby Digital Plus
    Codec ID                    : A_EAC3
    Duration                    : 58 min 37 s
    Bit rate mode               : Constant
    Bit rate                    : 640 kb/s
    Channel(s)                  : 6 channels
    Channel layout              : L R C LFE Ls Rs
    Sampling rate               : 48.0 kHz
    Frame rate                  : 31.250 FPS (1536 SPF)
    Compression mode            : Lossy
    Delay relative to video     : -1 s 14 ms
    Stream size                 : 268 MiB (6%)
    Title                       : Inglés [CinemaniaHDD]
    Language                    : English
    Service kind                : Complete Main
    Default                     : No
    Forced                      : No

    Text #1
    ID                          : 4
    Format                      : UTF-8
    Codec ID                    : S_TEXT/UTF8
    Codec ID/Info               : UTF-8 Plain Text
    Duration                    : 55 min 20 s
    Bit rate                    : 0 b/s
    Count of elements           : 10
    Stream size                 : 234 Bytes (0%)
    Title                       : Forzados [CinemaniaHDD]
    Language                    : Spanish
    Default                     : Yes
    Forced                      : Yes

    Text #2
    ID                          : 5
    Format                      : UTF-8
    Codec ID                    : S_TEXT/UTF8
    Codec ID/Info               : UTF-8 Plain Text
    Duration                    : 55 min 20 s
    Bit rate                    : 69 b/s
    Count of elements           : 869
    Stream size                 : 28.3 KiB (0%)
    Title                       : Español latino [CinemaniaHDD]
    Language                    : Spanish
    Default                     : No
    Forced                      : No

    Text #3
    ID                          : 6
    Format                      : UTF-8
    Codec ID                    : S_TEXT/UTF8
    Codec ID/Info               : UTF-8 Plain Text
    Duration                    : 57 min 25 s
    Bit rate                    : 82 b/s
    Count of elements           : 1015
    Stream size                 : 34.9 KiB (0%)
    Title                       : Inglés [CinemaniaHDD]
    Language                    : English
    Default                     : No
    Forced                      : No

     

  • Peso: 4.17 GiB C/U --- FINAL DE TEMPORADA

Sinopsis

Basada en la novela homónima de Philip Roth y contada a través de los ojos de una familia judía de New Jersey, la serie plantea una escalofriante historia alternativa donde el antisemitismo es parte de la vida estadounidense durante la época de la Segunda Guerra Mundial.

FINAL DE TEMPORADA

6 CAPITULOS AGREGADOS

Ficha técnica

Video trailer de la película

Enlaces de descarga

Rip de Bluray

Descargar The Plot Against America (2020) Temporada 1 AMZN WEB-DL 1080p Latino




Aportes de DPeliculasHDmega la pass es:dpeliculashdmega.org Aportes de CinemaniaHD la pass es:cinemaniahdd.com
Guardado en : Drama , HBO , Sci-Fi & Fantasy , Series

Películas relacionadas

  • El discurso del Rey (2010) 1080p Latino

    El discurso del Rey (2010) 1080p Latino

    2010
    El discurso del Rey (2010) 1080p Latino

    1h 58m 2010

    Descargar El discurso del Rey (2010) 1080p Latino. El duque de York se convirtió en rey de Gran Bretaña...

    Director: Tom Hooper

    Género: Drama

    Actores: Tony Earnshaw

  • El discurso del Rey (2010) Full HD 1080p Latino

    El discurso del Rey (2010) Full HD 1080p Latino

    2010
    El discurso del Rey (2010) Full HD 1080p Latino

    1h 58m 2010

    Descargar El discurso del Rey (2010) Full HD 1080p Latino. El duque de York se convirtió en rey de Gran...

    Director: Tom Hooper

    Género: Drama

    Actores: Tony Earnshaw

  • El discurso del Rey (2010) REMUX 1080p Latino

    El discurso del Rey (2010) REMUX 1080p Latino

    2010
    El discurso del Rey (2010) REMUX 1080p Latino

    1h 58m 2010

    Descargar El discurso del Rey (2010) REMUX 1080p Latino. El duque de York se convirtió en rey de Gran...

    Director: Tom Hooper

    Género: Drama

    Actores: Tony Earnshaw

  • 8 Mile (2002) REMUX 4K HDR Latino – CMHDD

    8 Mile (2002) REMUX 4K HDR Latino – CMHDD

    2002
    8 Mile (2002) REMUX 4K HDR Latino – CMHDD

    1h 50m 2002

    Detroit, 1995. La promesa de potencia industrial se ha transformado en un hervidero de conflictos económicos...

    Director: Michael J. Moore

    Género: Drama

    Actores: Xzibit

descargar The Plot Against America (2020) Temporada 1 AMZN WEB-DL 1080p Latino WEBDL 1080p gratis, The Plot Against America (2020) Temporada 1 AMZN WEB-DL 1080p Latino WEBDL mega 1 link, The Plot Against America (2020) Temporada 1 AMZN WEB-DL 1080p Latino WEBDL serie completa, descargar The Plot Against America (2020) Temporada 1 AMZN WEB-DL 1080p Latino WEBDL gratis en mega.

The Plot Against America (2020) Temporada 1 AMZN WEB-DL 1080p Latino pelicula full hd, The Plot Against America (2020) Temporada 1 AMZN WEB-DL 1080p Latino mega latino, The Plot Against America (2020) Temporada 1 AMZN WEB-DL 1080p Latino 4k latino, The Plot Against America (2020) Temporada 1 AMZN WEB-DL 1080p Latino pelicula completa, The Plot Against America (2020) Temporada 1 AMZN WEB-DL 1080p Latino descargar gratis, descargar The Plot Against America (2020) Temporada 1 AMZN WEB-DL 1080p Latino pelicula latino, The Plot Against America (2020) Temporada 1 AMZN WEB-DL 1080p Latino 1 link mega, The Plot Against America (2020) Temporada 1 AMZN WEB-DL 1080p Latino 1 link google drive, The Plot Against America (2020) Temporada 1 AMZN WEB-DL 1080p Latino hd 1080p latino.
Comentarios 2
  • Jose_E.T. - 24 marzo, 2020

    Muchas gracias, me enganché con el primer episodio. Definitivamente seguiré viendo!

  • will - 17 marzo, 2020

    mil gracias