×

¿Problemas para descargar con Mozilla, EDGE? Deshabilita la opción "Abrir vinculos en una pestaña nueva" tal como lo muestra ésta imagen.

The Pianist (2002) REMUX 4K HDR Latino – CMHDD

131 vistas

Información de The Pianist (2002) REMUX 4K HDR Latino – CMHDD

Datos de la película

  • Calidad: 4K HDR
  • Audio: Español Latino AC3 5.1 BLURAY - Ingles DTS 5.1 BLURAY
  • Subtitulos: Español Latino SRT- FORZADOS SRT
  • Resolución: 3840x2160p
  • Formato: MKV
  • Codec: H.264
  • Encoder: Dracarys
  • Mediainfo: Clic para Mostrar Datos Ver
  • Format                      : Matroska
    Format version              : Version 4
    File size                   : 66.8 GiB
    Duration                    : 2 h 29 min
    Overall bit rate mode       : Variable
    Overall bit rate            : 64.0 Mb/s
    Movie name                  : The Pianist (2002) REMUX 4K HDR Latino - CMHDD
    Encoded date                : UTC 2023-12-11 01:26:22
    Writing application         : mkvmerge v47.0.0 ('Black Flag') 64-bit
    Writing library             : libebml v1.3.10 + libmatroska v1.5.2

    Video
    ID                          : 1
    Format                      : HEVC
    Format/Info                 : High Efficiency Video Coding
    Format profile              : Main 10@L5.1@High
    HDR format                  : SMPTE ST 2086, HDR10 compatible
    Codec ID                    : V_MPEGH/ISO/HEVC
    Duration                    : 2 h 29 min
    Bit rate                    : 60.0 Mb/s
    Width                       : 3 840 pixels
    Height                      : 2 160 pixels
    Display aspect ratio        : 16:9
    Frame rate mode             : Constant
    Frame rate                  : 23.976 (24000/1001) FPS
    Color space                 : YUV
    Chroma subsampling          : 4:2:0 (Type 2)
    Bit depth                   : 10 bits
    Bits/(Pixel*Frame)          : 0.302
    Stream size                 : 62.6 GiB (94%)
    Default                     : Yes
    Forced                      : No
    Color range                 : Limited
    Color primaries             : BT.2020
    Transfer characteristics    : PQ
    Matrix coefficients         : BT.2020 non-constant
    Mastering display color pri : Display P3
    Mastering display luminance : min: 0.0001 cd/m2, max: 1000 cd/m2
    Maximum Content Light Level : 797 cd/m2
    Maximum Frame-Average Light : 114 cd/m2

    Audio #1
    ID                          : 2
    Format                      : AC-3
    Format/Info                 : Audio Coding 3
    Codec ID                    : A_AC3
    Duration                    : 2 h 28 min
    Bit rate                    : 640 kb/s
    Channel(s)                  : 6 channels
    Sampling rate               : 48.0 kHz
    Frame rate                  : 31.250 FPS (1536 SPF)
    Compression mode            : Lossy
    Stream size                 : 681 MiB (1%)
    Language                    : Spanish
    Default                     : Yes
    Forced                      : No

    Audio #2
    ID                          : 3
    ID in the original source m : 4352 (0x1100)
    Format                      : DTS XLL
    Format/Info                 : Digital Theater Systems
    Commercial name             : DTS-HD Master Audio
    Codec ID                    : A_DTS
    Duration                    : 2 h 28 min
    Bit rate mode               : Variable
    Bit rate                    : 2 742 kb/s
    Channel(s)                  : 6 channels
    Channel layout              : C L R Ls Rs LFE
    Sampling rate               : 48.0 kHz
    Frame rate                  : 93.750 FPS (512 SPF)
    Bit depth                   : 24 bits
    Compression mode            : Lossless
    Stream size                 : 2.85 GiB (4%)
    Language                    : English
    Default                     : No
    Forced                      : No
    Original source medium      : Blu-ray

    Audio #3
    ID                          : 4
    Format                      : AC-3
    Format/Info                 : Audio Coding 3
    Commercial name             : Dolby Digital
    Codec ID                    : A_AC3
    Duration                    : 2 h 28 min
    Bit rate mode               : Constant
    Bit rate                    : 640 kb/s
    Channel(s)                  : 6 channels
    Channel layout              : L R C LFE Ls Rs
    Sampling rate               : 48.0 kHz
    Frame rate                  : 31.250 FPS (1536 SPF)
    Compression mode            : Lossy
    Delay relative to video     : 8 ms
    Stream size                 : 681 MiB (1%)
    Language                    : English
    Service kind                : Complete Main
    Default                     : No
    Forced                      : No

    Text #1
    ID                          : 5
    Format                      : UTF-8
    Codec ID                    : S_TEXT/UTF8
    Codec ID/Info               : UTF-8 Plain Text
    Duration                    : 2 h 10 min
    Bit rate                    : 4 b/s
    Frame rate                  : 0.024 FPS
    Count of elements           : 186
    Stream size                 : 4.26 KiB (0%)
    Title                       : Forzados
    Language                    : Spanish
    Default                     : Yes
    Forced                      : Yes

    Text #2
    ID                          : 6
    Format                      : UTF-8
    Codec ID                    : S_TEXT/UTF8
    Codec ID/Info               : UTF-8 Plain Text
    Duration                    : 2 h 22 min
    Bit rate                    : 29 b/s
    Frame rate                  : 0.128 FPS
    Count of elements           : 1097
    Stream size                 : 30.3 KiB (0%)
    Language                    : Spanish
    Default                     : No
    Forced                      : No

    Menu
    00:00:00.000                : Interrupted Broadcast
    00:05:15.499                : Hiding Assets
    00:11:05.599                : Forced Quarters
    00:20:20.445                : Unwanted Guest
    00:23:21.459                : You're an Artist
    00:25:15.406                : Life in a Ghetto
    00:36:33.626                : Certificate of Employment
    00:41:56.031                : Immeasurable Pain
    00:48:52.530                : Saving One Life
    00:53:14.959                : Under the Stage
    00:58:03.080                : A Familiar Face
    01:03:40.834                : Amongst Potatoes
    01:09:17.880                : New Year's Eve
    01:16:42.615                : Other Side of the Wall
    01:21:58.556                : What Good?
    01:26:13.561                : A Loud Noise
    01:33:17.985                : The Lion's Den
    01:38:10.611                : Food for Time
    01:43:31.556                : Uprising in the Street
    01:50:02.822                : A Narrow Escape
    01:54:32.008                : Completely Destroyed
    02:00:10.387                : Nervous Hands
    02:15:16.751                : Mistaken Attire
    02:21:23.201                : End Credits

     

  • Peso: 66.8 GiB

Sinopsis

Varsovia, 1939. El pianista polaco de origen judío Wladyslaw Szpilman (Adrien Brody) interpreta un tema de Chopin en la radio nacional de Polonia mientras la aviación alemana bombardea la capital. El régimen nazi ha invadido el país, y como hace en otros países invadidos, lleva a cabo la misma política con respecto a los judíos. Así Szpilman y toda su familia -sus padres, su hermano y sus dos hermanas- se ven obligados a dejar su casa y todo lo que les pertenece para trasladarse con miles de personas de origen judío al ghetto de Varsovia. Mientras Wladyslaw trabaja como pianista en un restaurante propiedad de un judío que colabora con los nazis, su hermano Henryk (Ed Stoppard) prefiere luchar contra los nazis. Pero tres años más tarde, los habitantes del ghetto son trasladados en trenes hacia campos de concentración.

Ficha técnica

Video trailer de la película

Enlaces de descarga

Rip de Bluray

Descargar The Pianist (2002) REMUX 4K HDR Latino – CMHDD




Aportes de DPeliculasHDmega la pass es:dpeliculashdmega.org Aportes de CinemaniaHD la pass es:cinemaniahdd.com Aportes recientes:cinemaniahdd.net
Guardado en : Bélica , Drama

Películas relacionadas

descargar The Pianist (2002) REMUX 4K HDR Latino – CMHDD 4K HDR 1080p gratis, The Pianist (2002) REMUX 4K HDR Latino – CMHDD 4K HDR mega 1 link, The Pianist (2002) REMUX 4K HDR Latino – CMHDD 4K HDR pelicula completa, descargar The Pianist (2002) REMUX 4K HDR Latino – CMHDD 4K HDR gratis en mega.

The Pianist (2002) REMUX 4K HDR Latino – CMHDD pelicula full hd, The Pianist (2002) REMUX 4K HDR Latino – CMHDD mega latino, The Pianist (2002) REMUX 4K HDR Latino – CMHDD 4k latino, The Pianist (2002) REMUX 4K HDR Latino – CMHDD pelicula completa, The Pianist (2002) REMUX 4K HDR Latino – CMHDD descargar gratis, descargar The Pianist (2002) REMUX 4K HDR Latino – CMHDD pelicula latino, The Pianist (2002) REMUX 4K HDR Latino – CMHDD 1 link mega, The Pianist (2002) REMUX 4K HDR Latino – CMHDD 1 link google drive, The Pianist (2002) REMUX 4K HDR Latino – CMHDD hd 1080p latino.
Comentarios 0