×

¿Problemas para descargar con Mozilla, EDGE? Deshabilita la opción "Abrir vinculos en una pestaña nueva" tal como lo muestra ésta imagen.

The Photograph (2020) WEB-DL 1080p Latino

293 vistas

Información de The Photograph (2020) WEB-DL 1080p Latino

Datos de la película

  • Calidad: WEBDL
  • Audio: Español Latino AC3 2.0 iTunes - Ingles AC3 5.1 iTunes
  • Subtitulos: Español Latino SRT- FORZADOS SRT
  • Resolución: 1920x800
  • Formato: MKV
  • Codec: H.264
  • Encoder: CinemaniaHD
  • Mediainfo: Clic para Mostrar Datos Ver
  • The Photograph (2020) WEB-DL 1080p Latino.mkv
    Format                      : Matroska
    Format version              : Version 4
    File size                   : 3.80 GiB
    Duration                    : 1 h 46 min
    Overall bit rate            : 5 108 kb/s
    Encoded date                : UTC 2020-04-28 14:02:48
    Writing application         : mkvmerge v42.0.0 ('Overtime') 64-bit
    Writing library             : libebml v1.3.10 + libmatroska v1.5.2

    Video
    ID                          : 1
    Format                      : AVC
    Format/Info                 : Advanced Video Codec
    Format profile              : High@L4
    Format settings             : CABAC / 5 Ref Frames
    Format settings, CABAC      : Yes
    Format settings, ReFrames   : 5 frames
    Codec ID                    : V_MPEG4/ISO/AVC
    Duration                    : 1 h 46 min
    Bit rate                    : 4 596 kb/s
    Width                       : 1 920 pixels
    Height                      : 800 pixels
    Display aspect ratio        : 2.40:1
    Frame rate mode             : Constant
    Frame rate                  : 23.976 (24000/1001) FPS
    Color space                 : YUV
    Chroma subsampling          : 4:2:0
    Bit depth                   : 8 bits
    Scan type                   : Progressive
    Bits/(Pixel*Frame)          : 0.125
    Stream size                 : 3.41 GiB (90%)
    Language                    : English
    Default                     : Yes
    Forced                      : No
    Color range                 : Limited
    Color primaries             : BT.709
    Transfer characteristics    : BT.709
    Matrix coefficients         : BT.709

    Audio #1
    ID                          : 2
    Format                      : AAC LC
    Format/Info                 : Advanced Audio Codec Low Complexity
    Codec ID                    : A_AAC-2
    Duration                    : 1 h 46 min
    Bit rate                    : 126 kb/s
    Channel(s)                  : 2 channels
    Channel layout              : L R
    Sampling rate               : 48.0 kHz
    Frame rate                  : 46.875 FPS (1024 SPF)
    Compression mode            : Lossy
    Delay relative to video     : -42 ms
    Stream size                 : 95.8 MiB (2%)
    Language                    : Spanish
    Default                     : Yes
    Forced                      : No

    Audio #2
    ID                          : 3
    Format                      : AC-3
    Format/Info                 : Audio Coding 3
    Commercial name             : Dolby Digital
    Codec ID                    : A_AC3
    Duration                    : 1 h 46 min
    Bit rate mode               : Constant
    Bit rate                    : 384 kb/s
    Channel(s)                  : 6 channels
    Channel layout              : L R C LFE Ls Rs
    Sampling rate               : 48.0 kHz
    Frame rate                  : 31.250 FPS (1536 SPF)
    Bit depth                   : 16 bits
    Compression mode            : Lossy
    Delay relative to video     : -42 ms
    Stream size                 : 292 MiB (8%)
    Language                    : English
    Service kind                : Complete Main
    Default                     : No
    Forced                      : No

    Text #1
    ID                          : 4
    Format                      : UTF-8
    Codec ID                    : S_TEXT/UTF8
    Codec ID/Info               : UTF-8 Plain Text
    Duration                    : 1 h 45 min
    Bit rate                    : 41 b/s
    Count of elements           : 1152
    Stream size                 : 32.3 KiB (0%)
    Default                     : Yes
    Forced                      : No

    Text #2
    ID                          : 5
    Format                      : UTF-8
    Codec ID                    : S_TEXT/UTF8
    Codec ID/Info               : UTF-8 Plain Text
    Duration                    : 1 h 45 min
    Bit rate                    : 0 b/s
    Count of elements           : 3
    Stream size                 : 86.0 Bytes (0%)
    Default                     : No
    Forced                      : No

    Menu
    00:00:00.000                : en:1
    00:05:44.052                : en:2
    00:09:30.653                : en:3
    00:15:08.115                : en:4
    00:20:28.393                : en:5
    00:27:40.866                : en:6
    00:34:10.338                : en:7
    00:38:20.379                : en:8
    00:44:48.433                : en:9
    00:50:14.007                : en:10
    00:54:31.639                : en:11
    00:57:49.503                : en:12
    01:02:10.888                : en:13
    01:08:19.630                : en:14
    01:15:50.622                : en:15
    01:21:26.665                : en:16
    01:25:30.533                : en:17
    01:31:41.277                : en:18
    01:36:42.036                : en:19
    01:40:28.011                : en:20

  • Peso: 3.80 GiB

Sinopsis

Cuando la famosa fotógrafa Christina Eames muere inesperadamente, su hija Mae Morton (Issa Rae) se queda confundida, enfadada y llena de preguntas. Cuando encuentra una fotografía escondida en una caja de seguridad, Mae comienza a investigar la vida de joven de su madre, comenzando al mismo tiempo un apasionado e inesperado romance con un periodista, Michael Block (LaKeith Stanfield).

Ficha técnica

  • Titulo original: The Photograph
  • Fecha de lanzamiento: 14-02-2020 (United States of America)
  • Director: Stella Meghie
  • Género: Drama, Romance

Video trailer de la película

Enlaces de descarga

Rip de Bluray

Descargar The Photograph (2020) WEB-DL 1080p Latino




Aportes de DPeliculasHDmega la pass es:dpeliculashdmega.org Aportes de CinemaniaHD la pass es:cinemaniahdd.com
Guardado en : Drama , Romance

Películas relacionadas

  • Jaula Mental (2022) HD 1080p Latino

    Jaula Mental (2022) HD 1080p Latino

    2022
    Jaula Mental (2022) HD 1080p Latino

    1h 47m 2022

    Descargar Jaula Mental (2022) HD 1080p Latino. Cuando un asesino que imita otros crímenes comienza a...

    Director: Mauro Borrelli

    Género: Crimen

    Actores: Victoria Fox

  • Jaula Mental (2022) PLACEBO Full HD 1080p Latino

    Jaula Mental (2022) PLACEBO Full HD 1080p Latino

    2022
    Jaula Mental (2022) PLACEBO Full HD 1080p Latino

    1h 47m 2022

    Descargar Jaula Mental (2022) PLACEBO Full HD 1080p Latino. Cuando un asesino que imita otros crímenes...

    Director: Mauro Borrelli

    Género: Crimen

    Actores: Victoria Fox

  • Jaula Mental (2022) REMUX 1080p Latino

    Jaula Mental (2022) REMUX 1080p Latino

    2022
    Jaula Mental (2022) REMUX 1080p Latino

    1h 47m 2022

    Descargar Jaula Mental (2022) REMUX 1080p Latino. Cuando un asesino que imita otros crímenes comienza...

    Director: Mauro Borrelli

    Género: Crimen

    Actores: Victoria Fox

  • Transfusion (2023) HD 1080p Latino

    Transfusion (2023) HD 1080p Latino

    2023
    Transfusion (2023) HD 1080p Latino

    1h 45m 2023

    Descargar Transfusion (2023) HD 1080p Latino. Un antiguo agente de las Fuerzas Especiales se ve empujado...

    Director: Matt Nable

    Género: Crimen

    Actores: Trystan Go

  • Transfusion (2023) PLACEBO Full HD 1080p Latino

    Transfusion (2023) PLACEBO Full HD 1080p Latino

    2023
    Transfusion (2023) PLACEBO Full HD 1080p Latino

    1h 45m 2023

    Descargar Transfusion (2023) PLACEBO Full HD 1080p Latino. Un antiguo agente de las Fuerzas Especiales...

    Director: Matt Nable

    Género: Crimen

    Actores: Trystan Go

descargar The Photograph (2020) WEB-DL 1080p Latino WEBDL 1080p gratis, The Photograph (2020) WEB-DL 1080p Latino WEBDL mega 1 link, The Photograph (2020) WEB-DL 1080p Latino WEBDL pelicula completa, descargar The Photograph (2020) WEB-DL 1080p Latino WEBDL gratis en mega.

The Photograph (2020) WEB-DL 1080p Latino pelicula full hd, The Photograph (2020) WEB-DL 1080p Latino mega latino, The Photograph (2020) WEB-DL 1080p Latino 4k latino, The Photograph (2020) WEB-DL 1080p Latino pelicula completa, The Photograph (2020) WEB-DL 1080p Latino descargar gratis, descargar The Photograph (2020) WEB-DL 1080p Latino pelicula latino, The Photograph (2020) WEB-DL 1080p Latino 1 link mega, The Photograph (2020) WEB-DL 1080p Latino 1 link google drive, The Photograph (2020) WEB-DL 1080p Latino hd 1080p latino.
Comentarios 0