×

¿Problemas para descargar con Mozilla, EDGE? Deshabilita la opción "Abrir vinculos en una pestaña nueva" tal como lo muestra ésta imagen.

The Photograph (2020) REMUX 1080p Latino

276 vistas

Información de The Photograph (2020) REMUX 1080p Latino

Datos de la película

  • Calidad: Full 1080p
  • Audio: Español Latino DTS 5.1 BLURAY - Ingles DTS-HD Master 7.1 BLURAY
  • Subtitulos: Español Latino PGS - Ingles PGS
  • Resolución: 1920x1080p
  • Formato: MKV
  • Codec: H.264
  • Encoder: CinefiloCool
  • Mediainfo: Clic para Mostrar Datos Ver
  • The Photograph (2020) REMUX 1080p Latino-CMHDD.mkv
    Format                      : Matroska
    Format version              : Version 4
    File size                   : 26.9 GiB
    Duration                    : 1 h 46 min
    Overall bit rate mode       : Variable
    Overall bit rate            : 36.3 Mb/s
    Movie name                  : The Photograph (2020) CinemaniaHDD.Net
    Encoded date                : UTC 2020-05-07 06:17:01
    Writing application         : mkvmerge v46.0.0 ('No Deeper Escape') 64-bit
    Writing library             : libebml v1.3.10 + libmatroska v1.5.2
    Attachments                 : CINEMANIAHD.png

    Video
    ID                          : 1
    ID in the original source m : 4113 (0x1011)
    Format                      : AVC
    Format/Info                 : Advanced Video Codec
    Format profile              : High@L4.1
    Format settings             : CABAC / 2 Ref Frames
    Format settings, CABAC      : Yes
    Format settings, Reference  : 2 frames
    Codec ID                    : V_MPEG4/ISO/AVC
    Duration                    : 1 h 46 min
    Bit rate mode               : Variable
    Bit rate                    : 31.2 Mb/s
    Width                       : 1 920 pixels
    Height                      : 1 080 pixels
    Display aspect ratio        : 16:9
    Frame rate mode             : Constant
    Frame rate                  : 23.976 (24000/1001) FPS
    Color space                 : YUV
    Chroma subsampling          : 4:2:0
    Bit depth                   : 8 bits
    Scan type                   : Progressive
    Bits/(Pixel*Frame)          : 0.628
    Stream size                 : 23.2 GiB (86%)
    Title                       : REMUX 1080p [CinemaniaHDD]
    Language                    : English
    Default                     : Yes
    Forced                      : No
    Original source medium      : Blu-ray

    Audio #1
    ID                          : 2
    ID in the original source m : 4353 (0x1101)
    Format                      : DTS
    Format/Info                 : Digital Theater Systems
    Codec ID                    : A_DTS
    Duration                    : 1 h 46 min
    Bit rate mode               : Constant
    Bit rate                    : 768 kb/s
    Channel(s)                  : 6 channels
    Channel layout              : C L R Ls Rs LFE
    Sampling rate               : 48.0 kHz
    Frame rate                  : 93.750 FPS (512 SPF)
    Bit depth                   : 24 bits
    Compression mode            : Lossy
    Stream size                 : 584 MiB (2%)
    Title                       : Español Latino [CinemaniaHDD]
    Language                    : Spanish
    Default                     : Yes
    Forced                      : No
    Original source medium      : Blu-ray

    Audio #2
    ID                          : 3
    ID in the original source m : 4352 (0x1100)
    Format                      : DTS XLL
    Format/Info                 : Digital Theater Systems
    Commercial name             : DTS-HD Master Audio
    Codec ID                    : A_DTS
    Duration                    : 1 h 46 min
    Bit rate mode               : Variable
    Bit rate                    : 4 231 kb/s
    Channel(s)                  : 8 channels
    Channel layout              : C L R LFE Lb Rb Lss Rss
    Sampling rate               : 48.0 kHz
    Frame rate                  : 93.750 FPS (512 SPF)
    Bit depth                   : 24 bits
    Compression mode            : Lossless
    Stream size                 : 3.14 GiB (12%)
    Title                       : Ingles [CinemaniaHDD]
    Language                    : English
    Default                     : No
    Forced                      : No
    Original source medium      : Blu-ray

    Text #1
    ID                          : 4
    ID in the original source m : 4611 (0x1203)
    Format                      : PGS
    Muxing mode                 : zlib
    Codec ID                    : S_HDMV/PGS
    Codec ID/Info               : Picture based subtitle format used on BDs/HD-DVDs
    Duration                    : 1 h 45 min
    Bit rate                    : 110 b/s
    Count of elements           : 8
    Stream size                 : 85.5 KiB (0%)
    Title                       : Forzados-PGS [CinemaniaHDD]
    Language                    : Spanish
    Default                     : Yes
    Forced                      : No
    Original source medium      : Blu-ray

    Text #2
    ID                          : 5
    ID in the original source m : 4609 (0x1201)
    Format                      : PGS
    Muxing mode                 : zlib
    Codec ID                    : S_HDMV/PGS
    Codec ID/Info               : Picture based subtitle format used on BDs/HD-DVDs
    Duration                    : 1 h 45 min
    Bit rate                    : 28.5 kb/s
    Count of elements           : 2306
    Stream size                 : 21.6 MiB (0%)
    Title                       : Español-PGS [CinemaniaHDD]
    Language                    : Spanish
    Default                     : No
    Forced                      : No
    Original source medium      : Blu-ray

    Text #3
    ID                          : 6
    ID in the original source m : 4608 (0x1200)
    Format                      : PGS
    Muxing mode                 : zlib
    Codec ID                    : S_HDMV/PGS
    Codec ID/Info               : Picture based subtitle format used on BDs/HD-DVDs
    Duration                    : 1 h 45 min
    Bit rate                    : 43.5 kb/s
    Count of elements           : 3132
    Stream size                 : 32.9 MiB (0%)
    Title                       : Ingles-PGS [CinemaniaHDD]
    Language                    : English
    Default                     : No
    Forced                      : No
    Original source medium      : Blu-ray

    Text #4
    ID                          : 7
    Format                      : UTF-8
    Codec ID                    : S_TEXT/UTF8
    Codec ID/Info               : UTF-8 Plain Text
    Duration                    : 1 h 36 min
    Bit rate                    : 0 b/s
    Count of elements           : 8
    Stream size                 : 179 Bytes (0%)
    Title                       : Forzados-SRT [CinemaniaHDD]
    Language                    : Spanish
    Default                     : No
    Forced                      : No

    Text #5
    ID                          : 8
    Format                      : UTF-8
    Codec ID                    : S_TEXT/UTF8
    Codec ID/Info               : UTF-8 Plain Text
    Duration                    : 1 h 39 min
    Bit rate                    : 44 b/s
    Count of elements           : 1150
    Stream size                 : 32.6 KiB (0%)
    Title                       : Español-SRT [CinemaniaHDD]
    Language                    : Spanish
    Default                     : No
    Forced                      : No

    Menu
    00:00:00.000                : en:Chapter 01
    00:05:43.051                : en:Chapter 02
    00:09:29.652                : en:Chapter 03
    00:15:07.114                : en:Chapter 04
    00:20:27.392                : en:Chapter 05
    00:27:39.574                : en:Chapter 06
    00:34:09.047                : en:Chapter 07
    00:38:19.005                : en:Chapter 08
    00:44:47.142                : en:Chapter 09
    00:50:12.759                : en:Chapter 10
    00:54:30.642                : en:Chapter 11
    00:57:48.506                : en:Chapter 12
    01:02:09.892                : en:Chapter 13
    01:08:18.636                : en:Chapter 14
    01:15:49.419                : en:Chapter 15
    01:21:25.547                : en:Chapter 16
    01:25:29.290                : en:Chapter 17
    01:31:40.286                : en:Chapter 18
    01:36:41.045                : en:Chapter 19
    01:40:27.146                : en:Chapter 20

  • Peso: 26.9 GiB

Sinopsis

Descargar The Photograph (2020) REMUX 1080p Latino. Cuando la famosa fotógrafa Christina Eames muere inesperadamente, su hija Mae Morton (Issa Rae) se queda confundida, enfadada y llena de preguntas. Cuando encuentra una fotografía escondida en una caja de seguridad, Mae comienza a investigar la vida de joven de su madre, comenzando al mismo tiempo un apasionado e inesperado romance con un periodista, Michael Block (LaKeith Stanfield).

Ficha técnica

Video trailer de la película

Enlaces de descarga

Rip de Bluray

Descargar The Photograph (2020) REMUX 1080p Latino




Aportes de DPeliculasHDmega la pass es:dpeliculashdmega.org Aportes de CinemaniaHD la pass es:cinemaniahdd.com
Guardado en : Drama , Remux , Romance

Películas relacionadas

descargar The Photograph (2020) REMUX 1080p Latino Full 1080p 1080p gratis, The Photograph (2020) REMUX 1080p Latino Full 1080p mega 1 link, The Photograph (2020) REMUX 1080p Latino Full 1080p pelicula completa, descargar The Photograph (2020) REMUX 1080p Latino Full 1080p gratis en mega.

The Photograph (2020) REMUX 1080p Latino pelicula full hd, The Photograph (2020) REMUX 1080p Latino mega latino, The Photograph (2020) REMUX 1080p Latino 4k latino, The Photograph (2020) REMUX 1080p Latino pelicula completa, The Photograph (2020) REMUX 1080p Latino descargar gratis, descargar The Photograph (2020) REMUX 1080p Latino pelicula latino, The Photograph (2020) REMUX 1080p Latino 1 link mega, The Photograph (2020) REMUX 1080p Latino 1 link google drive, The Photograph (2020) REMUX 1080p Latino hd 1080p latino.
Comentarios 0