×

¿Problemas para descargar con Mozilla, EDGE? Deshabilita la opción "Abrir vinculos en una pestaña nueva" tal como lo muestra ésta imagen.

The Peripheral (2022) Primera Temporada AMZN WEB-DL 1080p Latino

89 vistas

Información de The Peripheral (2022) Primera Temporada AMZN WEB-DL 1080p Latino

Datos de la película

  • Calidad: 1080p
  • Audio: Español Latino AC3 5.1 WEB-DL - Ingles AC3 5.1 WEB-DL
  • Subtitulos: Español Latino SRT- FORZADOS SRT
  • Resolución: 1920x1080
  • Formato: MKV
  • Codec: H.264
  • Encoder: cinemaniahdd
  • Mediainfo: Clic para Mostrar Datos Ver
  • The Peripheral T01E01 AMZN WEB-DL 1080p Latino [CNMNHDD].mkv
    Format                      : Matroska
    Format version              : Version 4
    File size                   : 5.39 GiB
    Duration                    : 1 h 12 min
    Overall bit rate            : 10.6 Mb/s
    Movie name                  : The Peripheral S01E01 - Pilot [1080p] - CinemaniaHDD.Net
    Encoded date                : UTC 2022-10-21 02:59:11
    Writing application         : mkvmerge v56.1.0 ('My Friend') 64-bit
    Writing library             : libebml v1.4.2 + libmatroska v1.6.4

    Video
    ID                          : 1
    Format                      : AVC
    Format/Info                 : Advanced Video Codec
    Format profile              : High@L4
    Format settings             : CABAC / 4 Ref Frames
    Format settings, CABAC      : Yes
    Format settings, Reference  : 4 frames
    Codec ID                    : V_MPEG4/ISO/AVC
    Duration                    : 1 h 12 min
    Bit rate mode               : Constant
    Bit rate                    : 8 674 kb/s
    Nominal bit rate            : 10 000 kb/s
    Width                       : 1 920 pixels
    Height                      : 960 pixels
    Display aspect ratio        : 2.000
    Frame rate mode             : Constant
    Frame rate                  : 23.976 (24000/1001) FPS
    Color space                 : YUV
    Chroma subsampling          : 4:2:0
    Bit depth                   : 8 bits
    Scan type                   : Progressive
    Bits/(Pixel*Frame)          : 0.196
    Stream size                 : 4.41 GiB (82%)
    Title                       : CinemaniaHDD
    Default                     : Yes
    Forced                      : No
    Color range                 : Limited
    Color primaries             : BT.709
    Transfer characteristics    : BT.709
    Matrix coefficients         : BT.709

    Audio #1
    ID                          : 2
    Format                      : AC-3
    Format/Info                 : Audio Coding 3
    Commercial name             : Dolby Digital
    Codec ID                    : A_AC3
    Duration                    : 1 h 12 min
    Bit rate mode               : Constant
    Bit rate                    : 640 kb/s
    Channel(s)                  : 6 channels
    Channel layout              : L R C LFE Ls Rs
    Sampling rate               : 48.0 kHz
    Frame rate                  : 31.250 FPS (1536 SPF)
    Compression mode            : Lossy
    Stream size                 : 333 MiB (6%)
    Title                       : Español latino [CinemaniaHDD]
    Language                    : Spanish
    Service kind                : Complete Main
    Default                     : Yes
    Forced                      : No

    Audio #2
    ID                          : 3
    Format                      : E-AC-3
    Format/Info                 : Enhanced AC-3
    Commercial name             : Dolby Digital Plus
    Codec ID                    : A_EAC3
    Duration                    : 1 h 12 min
    Bit rate mode               : Constant
    Bit rate                    : 640 kb/s
    Channel(s)                  : 6 channels
    Channel layout              : L R C LFE Ls Rs
    Sampling rate               : 48.0 kHz
    Frame rate                  : 31.250 FPS (1536 SPF)
    Compression mode            : Lossy
    Stream size                 : 333 MiB (6%)
    Title                       : Español latino / E-AC3 [CinemaniaHDD]
    Language                    : Spanish
    Service kind                : Complete Main
    Default                     : No
    Forced                      : No

    Audio #3
    ID                          : 4
    Format                      : E-AC-3
    Format/Info                 : Enhanced AC-3
    Commercial name             : Dolby Digital Plus
    Codec ID                    : A_EAC3
    Duration                    : 1 h 12 min
    Bit rate mode               : Constant
    Bit rate                    : 640 kb/s
    Channel(s)                  : 6 channels
    Channel layout              : L R C LFE Ls Rs
    Sampling rate               : 48.0 kHz
    Frame rate                  : 31.250 FPS (1536 SPF)
    Compression mode            : Lossy
    Stream size                 : 333 MiB (6%)
    Title                       : Inglés [CinemaniaHDD]
    Language                    : English
    Service kind                : Complete Main
    Default                     : No
    Forced                      : No

    Text #1
    ID                          : 5
    Format                      : UTF-8
    Codec ID                    : S_TEXT/UTF8
    Codec ID/Info               : UTF-8 Plain Text
    Duration                    : 1 h 7 min
    Bit rate                    : 0 b/s
    Count of elements           : 16
    Stream size                 : 349 Bytes (0%)
    Title                       : Forzados [CinemaniaHDD]
    Language                    : Spanish
    Default                     : Yes
    Forced                      : Yes

    Text #2
    ID                          : 6
    Format                      : UTF-8
    Codec ID                    : S_TEXT/UTF8
    Codec ID/Info               : UTF-8 Plain Text
    Duration                    : 1 h 8 min
    Bit rate                    : 43 b/s
    Count of elements           : 711
    Stream size                 : 21.8 KiB (0%)
    Title                       : Español latino [CinemaniaHDD]
    Language                    : Spanish
    Default                     : No
    Forced                      : No

    Text #3
    ID                          : 7
    Format                      : UTF-8
    Codec ID                    : S_TEXT/UTF8
    Codec ID/Info               : UTF-8 Plain Text
    Duration                    : 1 h 9 min
    Bit rate                    : 59 b/s
    Count of elements           : 1145
    Stream size                 : 30.3 KiB (0%)
    Title                       : Inglés [CinemaniaHDD]
    Language                    : English
    Default                     : No
    Forced                      : No

     

  • Peso: 5.39 GiB Aprox ---- 36 GiB in 8 Chapters.

Sinopsis

Atrapada en un pequeño pueblo de los Apalaches, jugar videojuegos es la única manera que una joven tiene para escapar de la rutina. Es tan buena jugadora, que una empresa le envía un nuevo sistema de videojuegos para que lo pruebe, pero tiene una sorpresa. Desbloquea sus sueños de encontrar un propósito, romance y glamour en lo que parece un juego, poniéndola a ella y su familia en peligro.

Ficha técnica

Video trailer de la película

Enlaces de descarga

Rip de Bluray

Descargar The Peripheral (2022) Primera Temporada AMZN WEB-DL 1080p Latino




Aportes de DPeliculasHDmega la pass es:dpeliculashdmega.org Aportes de CinemaniaHD la pass es:cinemaniahdd.com
Guardado en : Drama , Sci-Fi & Fantasy , Series

Películas relacionadas

descargar The Peripheral (2022) Primera Temporada AMZN WEB-DL 1080p Latino 1080p 1080p gratis, The Peripheral (2022) Primera Temporada AMZN WEB-DL 1080p Latino 1080p mega 1 link, The Peripheral (2022) Primera Temporada AMZN WEB-DL 1080p Latino 1080p serie completa, descargar The Peripheral (2022) Primera Temporada AMZN WEB-DL 1080p Latino 1080p gratis en mega.

The Peripheral (2022) Primera Temporada AMZN WEB-DL 1080p Latino pelicula full hd, The Peripheral (2022) Primera Temporada AMZN WEB-DL 1080p Latino mega latino, The Peripheral (2022) Primera Temporada AMZN WEB-DL 1080p Latino 4k latino, The Peripheral (2022) Primera Temporada AMZN WEB-DL 1080p Latino pelicula completa, The Peripheral (2022) Primera Temporada AMZN WEB-DL 1080p Latino descargar gratis, descargar The Peripheral (2022) Primera Temporada AMZN WEB-DL 1080p Latino pelicula latino, The Peripheral (2022) Primera Temporada AMZN WEB-DL 1080p Latino 1 link mega, The Peripheral (2022) Primera Temporada AMZN WEB-DL 1080p Latino 1 link google drive, The Peripheral (2022) Primera Temporada AMZN WEB-DL 1080p Latino hd 1080p latino.
Comentarios 0