The Perfect Date (2019) NF WEB-DL 1080p Latino

560 vistas
1 estrella2 estrellas3 estrellas4 estrellas5 estrellas (1 votos, promedio: 4,00 de 5)
Cargando…

Información de The Perfect Date (2019) NF WEB-DL 1080p Latino

Datos de la película

  • Calidad: WEBDL
  • Audio: Español Latino AC3 5.1 Netflix - Ingles AC3 5.1 Netflix
  • Subtitulos: Español Latino SRT- FORZADOS SRT
  • Resolución: 1920x1080
  • Formato: MKV
  • Codec: H.264
  • Encoder: cinemaniahdd
  • Mediainfo: Clic para Mostrar Datos Ver
  • The Perfect Date (2019) NF WEB-DL 1080p Latino.mkv
    Format                      : Matroska
    Format version              : Version 4
    File size                   : 2.37 GiB
    Duration                    : 1 h 30 min
    Overall bit rate mode       : Variable
    Overall bit rate            : 3 747 kb/s
    Movie name                  : The Perfect Date (2019)
    Encoded date                : UTC 2019-04-12 16:13:28 / UTC 2019-04-10 16:49:11
    Writing application         : mkvmerge v22.0.0 ('At The End Of The World') 64-bit
    Writing library             : libebml v1.3.5 + libmatroska v1.4.8 / Lavf58.0.0

    Video
    ID                          : 1
    Format                      : AVC
    Format/Info                 : Advanced Video Codec
    Format profile              : [email protected]
    Format settings             : CABAC / 3 Ref Frames
    Format settings, CABAC      : Yes
    Format settings, ReFrames   : 3 frames
    Codec ID                    : V_MPEG4/ISO/AVC
    Duration                    : 1 h 30 min
    Bit rate mode               : Variable
    Bit rate                    : 3 010 kb/s
    Maximum bit rate            : 4 515 kb/s
    Width                       : 1 920 pixels
    Height                      : 1 080 pixels
    Display aspect ratio        : 16:9
    Frame rate mode             : Constant
    Frame rate                  : 23.976 (24000/1001) FPS
    Color space                 : YUV
    Chroma subsampling          : 4:2:0
    Bit depth                   : 8 bits
    Scan type                   : Progressive
    Bits/(Pixel*Frame)          : 0.061
    Stream size                 : 1.84 GiB (78%)
    Title                       : CinemaniaHDD
    Writing library             : x264 core 148 r2715 7e75228
    Encoding settings           : cabac=1 / ref=3 / deblock=1:0:0 / analyse=0x1:0x111 / me=umh / subme=10 / psy=1 / psy_rd=1.00:0.00 / mixed_ref=1 / me_range=24 / chroma_me=1 / trellis=2 / 8x8dct=0 / cqm=0 / deadzone=21,11 / fast_pskip=1 / chroma_qp_offset=-2 / threads=8 / lookahead_threads=1 / sliced_threads=0 / nr=0 / decimate=1 / interlaced=0 / bluray_compat=0 / stitchable=1 / constrained_intra=0 / bframes=2 / b_pyramid=0 / b_adapt=2 / b_bias=0 / direct=3 / weightb=1 / open_gop=0 / weightp=2 / keyint=48 / keyint_min=25 / scenecut=0 / intra_refresh=0 / rc_lookahead=48 / rc=2pass / mbtree=1 / bitrate=3010 / ratetol=1.0 / qcomp=0.50 / qpmin=6 / qpmax=51 / qpstep=4 / cplxblur=20.0 / qblur=0.5 / vbv_maxrate=4515 / vbv_bufsize=6020 / nal_hrd=vbr / filler=0 / ip_ratio=1.40 / aq=1:1.00
    Default                     : Yes
    Forced                      : No
    Statistics Tags Issue       : mkvmerge v22.0.0 ('At The End Of The World') 64-bit 2019-04-12 16:13:28 / mkvmerge v22.0.0 ('At The End Of The World') 64-bit 2019-04-12 16:13:28 / UTC 2019-04-10 16:49:11
    FromStats_BitRate           : 2977207
    FromStats_Duration          : 01:30:39.893000000
    FromStats_FrameCount        : 130427
    FromStats_StreamSize        : 2024461056

    Audio #1
    ID                          : 2
    Format                      : AC-3
    Format/Info                 : Audio Coding 3
    Commercial name             : Dolby Digital
    Codec ID                    : A_AC3
    Duration                    : 1 h 30 min
    Bit rate mode               : Constant
    Bit rate                    : 384 kb/s
    Channel(s)                  : 6 channels
    Channel layout              : L R C LFE Ls Rs
    Sampling rate               : 48.0 kHz
    Frame rate                  : 31.250 FPS (1536 SPF)
    Bit depth                   : 16 bits
    Compression mode            : Lossy
    Stream size                 : 249 MiB (10%)
    Title                       : Español latino [CinemaniaHDD]
    Language                    : Spanish
    Service kind                : Complete Main
    Default                     : Yes
    Forced                      : No
    Statistics Tags Issue       : mkvmerge v22.0.0 ('At The End Of The World') 64-bit 2019-04-12 16:13:28 / mkvmerge v22.0.0 ('At The End Of The World') 64-bit 2019-04-12 16:13:28 / UTC 2019-04-10 16:49:11
    FromStats_BitRate           : 384000
    FromStats_Duration          : 01:30:40.160000000
    FromStats_FrameCount        : 170005
    FromStats_StreamSize        : 261127680

    Audio #2
    ID                          : 3
    Format                      : AC-3
    Format/Info                 : Audio Coding 3
    Commercial name             : Dolby Digital
    Codec ID                    : A_AC3
    Duration                    : 1 h 30 min
    Bit rate mode               : Constant
    Bit rate                    : 384 kb/s
    Channel(s)                  : 6 channels
    Channel layout              : L R C LFE Ls Rs
    Sampling rate               : 48.0 kHz
    Frame rate                  : 31.250 FPS (1536 SPF)
    Bit depth                   : 16 bits
    Compression mode            : Lossy
    Stream size                 : 249 MiB (10%)
    Title                       : Inglés [CinemaniaHDD]
    Language                    : English
    Service kind                : Complete Main
    Default                     : No
    Forced                      : No
    Statistics Tags Issue       : mkvmerge v22.0.0 ('At The End Of The World') 64-bit 2019-04-12 16:13:28 / mkvmerge v22.0.0 ('At The End Of The World') 64-bit 2019-04-12 16:13:28 / UTC 2019-04-10 16:49:11
    FromStats_BitRate           : 384000
    FromStats_Duration          : 01:30:40.160000000
    FromStats_FrameCount        : 170005
    FromStats_StreamSize        : 261127680

    Text #1
    ID                          : 4
    Format                      : UTF-8
    Codec ID                    : S_TEXT/UTF8
    Codec ID/Info               : UTF-8 Plain Text
    Title                       : Forzados [CinemaniaHDD]
    Language                    : Spanish
    Default                     : Yes
    Forced                      : Yes
    Statistics Tags Issue       : mkvmerge v22.0.0 ('At The End Of The World') 64-bit 2019-04-12 16:13:28 / mkvmerge v22.0.0 ('At The End Of The World') 64-bit 2019-04-12 16:13:28 / UTC 2019-04-10 16:49:11
    FromStats_BitRate           : 1
    FromStats_Duration          : 01:29:28.238000000
    FromStats_FrameCount        : 27
    FromStats_StreamSize        : 773

    Text #2
    ID                          : 5
    Format                      : UTF-8
    Codec ID                    : S_TEXT/UTF8
    Codec ID/Info               : UTF-8 Plain Text
    Title                       : Español latino [CinemaniaHDD]
    Language                    : Spanish
    Default                     : No
    Forced                      : No
    Statistics Tags Issue       : mkvmerge v22.0.0 ('At The End Of The World') 64-bit 2019-04-12 16:13:28 / mkvmerge v22.0.0 ('At The End Of The World') 64-bit 2019-04-12 16:13:28 / UTC 2019-04-10 16:49:11
    FromStats_BitRate           : 78
    FromStats_Duration          : 01:29:28.238000000
    FromStats_FrameCount        : 1485
    FromStats_StreamSize        : 52784

  • Peso: 2.37 GiB

Sinopsis

¿Buscas novio? Para pagarse la universidad, Brooks Rattigan (Noah Centineo) necesita dinero. Por eso, este estudiante de instituto crea una aplicación de citas y se ofrece como novio suplente. Claro que hacerse pasar cada noche por un chico distinto le llevará a cuestionarse quién es en realidad… y con quién quiere estar. ¿Hasta dónde será capaz Brooks de llegar para pagar sus estudios universitarios?

Ficha técnica

  • Titulo original: The Perfect Date
  • Fecha de lanzamiento: 12-04-2019
  • Director: Chris Nelson
  • Género: Romance
  • Puntuación: 4.0 1 votos
  • Duración:
    1h 20m

Video trailer de la película

Enlaces de descarga

Rip de Bluray

Descargar The Perfect Date (2019) NF WEB-DL 1080p Latino




Aportes de DPeliculasHDmega la pass es:dpeliculashdmega.org Aportes de CinemaniaHD la pass es:cinemaniahdd.com
Guardado en : Romance

Películas relacionadas

  • Si La Colonia Hablara (2018) Remux 1080p Subtitulado

    2018
    Si La Colonia Hablara (2018) Remux 1080p Subtitulado

    5.0 1h 57m 2018

    Descargar Si La Colonia Hablara (2018) Remux 1080p Subtitulado. Basada en la novela de James Baldwin,...

    Director: Barry Jenkins

    Género: Crimen

    Actores: Teyonah Parris

  • Si La Colonia Hablara (2018) Full 1080p Subtitulado

    2018
    Si La Colonia Hablara (2018) Full 1080p Subtitulado

    5.0 1h 57m 2018

    Descargar Si La Colonia Hablara (2018) Full 1080p Subtitulado, Mega, Google Drive. Basada en la novela...

    Director: Barry Jenkins

    Género: Crimen

    Actores: Teyonah Parris

  • Si La Colonia Hablara (2018) 1080p Subtitulado

    2018
    Si La Colonia Hablara (2018) 1080p Subtitulado

    0.0 1h 57m 2018

    Descargar Si La Colonia Hablara (2018) 1080p Subtitulado, Mega, Google Drive. Basada en la novela de...

    Director: Barry Jenkins

    Género: Crimen

    Actores: Teyonah Parris

  • What Men Want (2019) WEB-DL 1080p Latino

    2019
    What Men Want (2019) WEB-DL 1080p Latino

    1.0 1h 57m 2019

    Una mujer que se dedica al mundo de las agencias deportivas se siente menospreciada por los hombres en...

    Director: Adam Shankman

    Género: Comedia

    Actores: Wendi McLendon-Covey

  • Someone Great (2019) NF 1080p Latino

    2019
    Someone Great (2019) NF 1080p Latino

    0.0 1h 32m 2019

    Para Makani Young, mudarse a Nebraska desde Hawaii, resultó todo un choque cultural. Todavía adaptándose...

    Director: Jennifer Kaytin Robinson

    Género: Comedia

    Actores: Thomas Kopache

Comentarios 0