×

¿Problemas para descargar con Mozilla, EDGE? Deshabilita la opción "Abrir vinculos en una pestaña nueva" tal como lo muestra ésta imagen.

The People We Hate at the Wedding (2022) AMZN WEB-DL 1080p Latino

16 vistas

Información de The People We Hate at the Wedding (2022) AMZN WEB-DL 1080p Latino

Datos de la película

  • Calidad: 1080p
  • Audio: Español Latino AC3 5.1 WEB-DL - Ingles AC3 5.1 WEB-DL
  • Subtitulos: Español Latino SRT- FORZADOS SRT
  • Resolución: 1920x1080
  • Formato: MKV
  • Codec: H.264
  • Encoder: cinemaniahdd
  • Mediainfo: Clic para Mostrar Datos Ver
  • The People We Hate At The Wedding (2022) AMZN WEB-DL 1080p Latino [CNMNHDD].mkv
    Format                      : Matroska
    Format version              : Version 4
    File size                   : 7.08 GiB
    Duration                    : 1 h 40 min
    Overall bit rate            : 10.1 Mb/s
    Movie name                  : The People We Hate At The Wedding (2022) [1080p] - CinemaniaHDD.Net
    Encoded date                : UTC 2022-11-18 01:03:09
    Writing application         : mkvmerge v56.1.0 ('My Friend') 64-bit
    Writing library             : libebml v1.4.2 + libmatroska v1.6.4

    Video
    ID                          : 1
    Format                      : AVC
    Format/Info                 : Advanced Video Codec
    Format profile              : High@L4
    Format settings             : CABAC / 4 Ref Frames
    Format settings, CABAC      : Yes
    Format settings, Reference  : 4 frames
    Codec ID                    : V_MPEG4/ISO/AVC
    Duration                    : 1 h 40 min
    Bit rate mode               : Constant
    Bit rate                    : 8 158 kb/s
    Nominal bit rate            : 10 000 kb/s
    Width                       : 1 920 pixels
    Height                      : 960 pixels
    Display aspect ratio        : 2.000
    Frame rate mode             : Constant
    Frame rate                  : 24.000 FPS
    Color space                 : YUV
    Chroma subsampling          : 4:2:0
    Bit depth                   : 8 bits
    Scan type                   : Progressive
    Bits/(Pixel*Frame)          : 0.184
    Stream size                 : 5.73 GiB (81%)
    Title                       : CinemaniaHDD
    Default                     : Yes
    Forced                      : No
    Color range                 : Limited
    Color primaries             : BT.709
    Transfer characteristics    : BT.709
    Matrix coefficients         : BT.709

    Audio #1
    ID                          : 2
    Format                      : AC-3
    Format/Info                 : Audio Coding 3
    Commercial name             : Dolby Digital
    Codec ID                    : A_AC3
    Duration                    : 1 h 40 min
    Bit rate mode               : Constant
    Bit rate                    : 640 kb/s
    Channel(s)                  : 6 channels
    Channel layout              : L R C LFE Ls Rs
    Sampling rate               : 48.0 kHz
    Frame rate                  : 31.250 FPS (1536 SPF)
    Compression mode            : Lossy
    Stream size                 : 460 MiB (6%)
    Title                       : Español latino [CinemaniaHDD]
    Language                    : Spanish
    Service kind                : Complete Main
    Default                     : Yes
    Forced                      : No

    Audio #2
    ID                          : 3
    Format                      : E-AC-3
    Format/Info                 : Enhanced AC-3
    Commercial name             : Dolby Digital Plus
    Codec ID                    : A_EAC3
    Duration                    : 1 h 40 min
    Bit rate mode               : Constant
    Bit rate                    : 640 kb/s
    Channel(s)                  : 6 channels
    Channel layout              : L R C LFE Ls Rs
    Sampling rate               : 48.0 kHz
    Frame rate                  : 31.250 FPS (1536 SPF)
    Compression mode            : Lossy
    Stream size                 : 460 MiB (6%)
    Title                       : Español latino / E-AC3 [CinemaniaHDD]
    Language                    : Spanish
    Service kind                : Complete Main
    Default                     : No
    Forced                      : No

    Audio #3
    ID                          : 4
    Format                      : E-AC-3
    Format/Info                 : Enhanced AC-3
    Commercial name             : Dolby Digital Plus
    Codec ID                    : A_EAC3
    Duration                    : 1 h 40 min
    Bit rate mode               : Constant
    Bit rate                    : 640 kb/s
    Channel(s)                  : 6 channels
    Channel layout              : L R C LFE Ls Rs
    Sampling rate               : 48.0 kHz
    Frame rate                  : 31.250 FPS (1536 SPF)
    Compression mode            : Lossy
    Stream size                 : 460 MiB (6%)
    Title                       : Inglés [CinemaniaHDD]
    Language                    : English
    Service kind                : Complete Main
    Default                     : No
    Forced                      : No

    Text #1
    ID                          : 5
    Format                      : UTF-8
    Codec ID                    : S_TEXT/UTF8
    Codec ID/Info               : UTF-8 Plain Text
    Duration                    : 1 h 35 min
    Bit rate                    : 1 b/s
    Count of elements           : 33
    Stream size                 : 975 Bytes (0%)
    Title                       : Forzados [CinemaniaHDD]
    Language                    : Spanish
    Default                     : Yes
    Forced                      : Yes

    Text #2
    ID                          : 6
    Format                      : UTF-8
    Codec ID                    : S_TEXT/UTF8
    Codec ID/Info               : UTF-8 Plain Text
    Duration                    : 1 h 38 min
    Bit rate                    : 75 b/s
    Count of elements           : 1645
    Stream size                 : 54.8 KiB (0%)
    Title                       : Español latino [CinemaniaHDD]
    Language                    : Spanish
    Default                     : No
    Forced                      : No

    Text #3
    ID                          : 7
    Format                      : UTF-8
    Codec ID                    : S_TEXT/UTF8
    Codec ID/Info               : UTF-8 Plain Text
    Duration                    : 1 h 38 min
    Bit rate                    : 99 b/s
    Count of elements           : 2240
    Stream size                 : 71.8 KiB (0%)
    Title                       : Inglés [CinemaniaHDD]
    Language                    : English
    Default                     : No
    Forced                      : No

     

  • Peso: 7.08 GiB

Sinopsis

En esta comedia hilarantemente irreverente, los disfuncionales hermanos norteamericanos Alice (Kristen Bell) y Paul (Ben Platt) junto con su siempre optimista madre (Allison Janney) son invitados a la boda británica de su media hermana Eloise (Cynthia Addai-Robinson) y es una oportunidad para reencontrarse siendo, más o menos, adultos y aprender a amarse como antes.

Ficha técnica

  • Titulo original: The People We Hate at the Wedding
  • Fecha de lanzamiento: 17-11-2022 (United States of America)
  • Director: Claire Scanlon
  • Género: Comedia

Video trailer de la película

Enlaces de descarga

Rip de Bluray

Descargar The People We Hate at the Wedding (2022) AMZN WEB-DL 1080p Latino




Aportes de DPeliculasHDmega la pass es:dpeliculashdmega.org Aportes de CinemaniaHD la pass es:cinemaniahdd.com
Guardado en : Comedia

Películas relacionadas

descargar The People We Hate at the Wedding (2022) AMZN WEB-DL 1080p Latino 1080p 1080p gratis, The People We Hate at the Wedding (2022) AMZN WEB-DL 1080p Latino 1080p mega 1 link, The People We Hate at the Wedding (2022) AMZN WEB-DL 1080p Latino 1080p pelicula completa, descargar The People We Hate at the Wedding (2022) AMZN WEB-DL 1080p Latino 1080p gratis en mega.

The People We Hate at the Wedding (2022) AMZN WEB-DL 1080p Latino pelicula full hd, The People We Hate at the Wedding (2022) AMZN WEB-DL 1080p Latino mega latino, The People We Hate at the Wedding (2022) AMZN WEB-DL 1080p Latino 4k latino, The People We Hate at the Wedding (2022) AMZN WEB-DL 1080p Latino pelicula completa, The People We Hate at the Wedding (2022) AMZN WEB-DL 1080p Latino descargar gratis, descargar The People We Hate at the Wedding (2022) AMZN WEB-DL 1080p Latino pelicula latino, The People We Hate at the Wedding (2022) AMZN WEB-DL 1080p Latino 1 link mega, The People We Hate at the Wedding (2022) AMZN WEB-DL 1080p Latino 1 link google drive, The People We Hate at the Wedding (2022) AMZN WEB-DL 1080p Latino hd 1080p latino.
Comentarios 0