The Peanut Butter Falcon (2019) REMUX 1080p SUP – CMHDD

40 vistas
1 estrella2 estrellas3 estrellas4 estrellas5 estrellas (Ninguna valoración todavía)
Cargando...

Información de The Peanut Butter Falcon (2019) REMUX 1080p SUP – CMHDD

Datos de la película

  • Calidad: Full 1080p
  • Audio: Ingles DTS 5.1 BLURAY
  • Subtitulos: Español Latino PGS
  • Resolución: 1920x1080p
  • Formato: MKV
  • Codec: H.264
  • Encoder: Dracarys
  • Mediainfo: Clic para Mostrar Datos Ver
  • Format                      : Matroska
    Format version              : Version 4
    File size                   : 18.0 GiB
    Duration                    : 1 h 35 min
    Overall bit rate mode       : Variable
    Overall bit rate            : 26.8 Mb/s
    Movie name                  : The Peanut Butter Falcon (2019) REMUX 1080p SUP - CMHDD
    Encoded date                : UTC 2021-05-02 22:57:01
    Writing application         : mkvmerge v56.1.0 ('My Friend') 64-bit
    Writing library             : libebml v1.4.2 + libmatroska v1.6.4
    Cover                       : Yes
    Attachments                 : cover.jpg / cover.jpg

    Video
    ID                          : 1
    Format                      : AVC
    Format/Info                 : Advanced Video Codec
    Format profile              : High@L4.1
    Format settings             : CABAC / 4 Ref Frames
    Format settings, CABAC      : Yes
    Format settings, Reference  : 4 frames
    Codec ID                    : V_MPEG4/ISO/AVC
    Duration                    : 1 h 35 min
    Bit rate mode               : Variable
    Bit rate                    : 23.2 Mb/s
    Maximum bit rate            : 35.0 Mb/s
    Width                       : 1 920 pixels
    Height                      : 1 080 pixels
    Display aspect ratio        : 16:9
    Frame rate mode             : Constant
    Frame rate                  : 23.976 (24000/1001) FPS
    Standard                    : NTSC
    Color space                 : YUV
    Chroma subsampling          : 4:2:0
    Bit depth                   : 8 bits
    Scan type                   : Progressive
    Bits/(Pixel*Frame)          : 0.466
    Stream size                 : 15.5 GiB (86%)
    Default                     : Yes
    Forced                      : No
    Color range                 : Limited
    Color primaries             : BT.709
    Transfer characteristics    : BT.709
    Matrix coefficients         : BT.709

    Audio
    ID                          : 2
    Format                      : DTS XLL
    Format/Info                 : Digital Theater Systems
    Commercial name             : DTS-HD Master Audio
    Codec ID                    : A_DTS
    Duration                    : 1 h 35 min
    Bit rate mode               : Variable
    Bit rate                    : 3 656 kb/s
    Channel(s)                  : 6 channels
    Channel layout              : C L R Ls Rs LFE
    Sampling rate               : 48.0 kHz
    Frame rate                  : 93.750 FPS (512 SPF)
    Bit depth                   : 24 bits
    Compression mode            : Lossless
    Stream size                 : 2.45 GiB (14%)
    Language                    : English
    Default                     : Yes
    Forced                      : No

    Text
    ID                          : 3
    Format                      : PGS
    Muxing mode                 : zlib
    Codec ID                    : S_HDMV/PGS
    Codec ID/Info               : Picture based subtitle format used on BDs/HD-DVDs
    Duration                    : 1 h 35 min
    Bit rate                    : 44.4 kb/s
    Count of elements           : 3489
    Stream size                 : 30.3 MiB (0%)
    Language                    : Spanish
    Default                     : Yes
    Forced                      : No

    Menu
    00:00:00.000                : Chapter 01
    00:08:14.494                : Chapter 02
    00:17:54.073                : Chapter 03
    00:25:26.525                : Chapter 04
    00:32:30.949                : Chapter 05
    00:42:37.555                : Chapter 06
    00:50:35.032                : Chapter 07
    00:58:02.479                : Chapter 08
    01:04:19.856                : Chapter 09
    01:13:20.396                : Chapter 10
    01:21:12.868                : Chapter 11
    01:31:09.464                : Chapter 12

  • Peso: 18.0 GiB

Sinopsis

Zak es un joven con Síndrome de Down que se escapa de su residencia para perseguir su sueño de convertirse en un luchador profesional en la escuela de lucha de Salwater Redneck. Una serie de circunstancias le llevan a encontrarse con Tyler, un delincuente que también se ha dado a la fuga y que más tarde se convierte en su entrenador y aliado. Su aventura les lleva a conocer a Eleanor, una enfermera un tanto peculiar que se une a ellos en su viaje a través del norte de California.

Ficha técnica

Video trailer de la película

Enlaces de descarga

Rip de Bluray

Descargar The Peanut Butter Falcon (2019) REMUX 1080p SUP – CMHDD


Aportes de DPeliculasHDmega la pass es:dpeliculashdmega.org Aportes de CinemaniaHD la pass es:cinemaniahdd.com
Guardado en : Aventura , Comedia , Drama

Películas relacionadas

The Peanut Butter Falcon (2019) REMUX 1080p SUP – CMHDD pelicula full hd, The Peanut Butter Falcon (2019) REMUX 1080p SUP – CMHDD mega latino, The Peanut Butter Falcon (2019) REMUX 1080p SUP – CMHDD 4k latino, The Peanut Butter Falcon (2019) REMUX 1080p SUP – CMHDD pelicula completa, The Peanut Butter Falcon (2019) REMUX 1080p SUP – CMHDD descargar gratis, descargar The Peanut Butter Falcon (2019) REMUX 1080p SUP – CMHDD pelicula latino, The Peanut Butter Falcon (2019) REMUX 1080p SUP – CMHDD 1 link mega, The Peanut Butter Falcon (2019) REMUX 1080p SUP – CMHDD 1 link google drive, The Peanut Butter Falcon (2019) REMUX 1080p SUP – CMHDD hd 1080p latino.