×

¿Problemas para descargar con Mozilla, EDGE? Deshabilita la opción "Abrir vinculos en una pestaña nueva" tal como lo muestra ésta imagen.

The Peanut Butter Falcon (2019) Full HD 1080p SUP – CMHDD

169 vistas

Información de The Peanut Butter Falcon (2019) Full HD 1080p SUP – CMHDD

Datos de la película

  • Calidad: Full 1080p
  • Audio: Ingles DTS 5.1 BLURAY
  • Subtitulos: Español Latino PGS
  • Resolución: 1920x1080p
  • Formato: MKV
  • Codec: H.264
  • Encoder: Dracarys
  • Mediainfo: Clic para Mostrar Datos Ver
  • Format                      : Matroska
    Format version              : Version 4
    File size                   : 5.16 GiB
    Duration                    : 1 h 35 min
    Overall bit rate mode       : Variable
    Overall bit rate            : 7 705 kb/s
    Movie name                  : The Peanut Butter Falcon (2019) Full HD 1080p SUP - CMHDD
    Encoded date                : UTC 2021-05-04 05:24:32
    Writing application         : mkvmerge v56.1.0 ('My Friend') 64-bit
    Writing library             : libebml v1.4.2 + libmatroska v1.6.4 / Lavf58.29.100

    Video
    ID                          : 1
    Format                      : AVC
    Format/Info                 : Advanced Video Codec
    Format profile              : High@L4.1
    Format settings             : CABAC / 4 Ref Frames
    Format settings, CABAC      : Yes
    Format settings, Reference  : 4 frames
    Codec ID                    : V_MPEG4/ISO/AVC
    Duration                    : 1 h 35 min
    Bit rate                    : 4 022 kb/s
    Width                       : 1 920 pixels
    Height                      : 1 080 pixels
    Display aspect ratio        : 16:9
    Frame rate mode             : Constant
    Frame rate                  : 23.976 (24000/1001) FPS
    Color space                 : YUV
    Chroma subsampling          : 4:2:0
    Bit depth                   : 8 bits
    Scan type                   : Progressive
    Bits/(Pixel*Frame)          : 0.081
    Stream size                 : 2.70 GiB (52%)
    Writing library             : x264 core 157 r2935 545de2f
    Encoding settings           : cabac=1 / ref=4 / deblock=1:0:0 / analyse=0x3:0x133 / me=tesa / subme=11 / psy=1 / psy_rd=1.00:0.00 / mixed_ref=1 / me_range=24 / chroma_me=1 / trellis=2 / 8x8dct=1 / cqm=0 / deadzone=21,11 / fast_pskip=0 / chroma_qp_offset=-2 / threads=24 / lookahead_threads=6 / sliced_threads=0 / nr=0 / decimate=1 / interlaced=0 / bluray_compat=0 / constrained_intra=0 / bframes=16 / b_pyramid=2 / b_adapt=2 / b_bias=0 / direct=3 / weightb=1 / open_gop=0 / weightp=2 / keyint=240 / keyint_min=24 / scenecut=40 / intra_refresh=0 / rc_lookahead=60 / rc=crf / mbtree=1 / crf=20.0 / qcomp=0.60 / qpmin=0 / qpmax=69 / qpstep=4 / vbv_maxrate=62500 / vbv_bufsize=78125 / crf_max=0.0 / nal_hrd=none / filler=0 / ip_ratio=1.40 / aq=1:1.00
    Default                     : Yes
    Forced                      : No
    Color range                 : Limited
    Color primaries             : BT.709
    Transfer characteristics    : BT.709
    Matrix coefficients         : BT.709

    Audio
    ID                          : 2
    Format                      : DTS XLL
    Format/Info                 : Digital Theater Systems
    Commercial name             : DTS-HD Master Audio
    Codec ID                    : A_DTS
    Duration                    : 1 h 35 min
    Bit rate mode               : Variable
    Bit rate                    : 3 656 kb/s
    Channel(s)                  : 6 channels
    Channel layout              : C L R Ls Rs LFE
    Sampling rate               : 48.0 kHz
    Frame rate                  : 93.750 FPS (512 SPF)
    Bit depth                   : 24 bits
    Compression mode            : Lossless
    Stream size                 : 2.45 GiB (47%)
    Title                       : Surround
    Language                    : English
    Default                     : Yes
    Forced                      : No

    Text
    ID                          : 3
    Format                      : PGS
    Muxing mode                 : zlib
    Codec ID                    : S_HDMV/PGS
    Codec ID/Info               : Picture based subtitle format used on BDs/HD-DVDs
    Duration                    : 1 h 35 min
    Bit rate                    : 44.4 kb/s
    Count of elements           : 3489
    Stream size                 : 30.3 MiB (1%)
    Language                    : Spanish
    Default                     : No
    Forced                      : No

    Menu
    00:00:00.000                : :Chapter 1
    00:08:14.494                : :Chapter 2
    00:17:54.115                : :Chapter 3
    00:25:26.567                : :Chapter 4
    00:32:30.991                : :Chapter 5
    00:42:37.597                : :Chapter 6
    00:50:35.074                : :Chapter 7
    00:58:02.521                : :Chapter 8
    01:04:19.856                : :Chapter 9
    01:13:20.438                : :Chapter 10
    01:21:12.910                : :Chapter 11
    01:31:09.506                : :Chapter 12

  • Peso: 5.16 GiB

Sinopsis

Zak es un joven con Síndrome de Down que se escapa de su residencia para perseguir su sueño de convertirse en un luchador profesional en la escuela de lucha de Salwater Redneck. Una serie de circunstancias le llevan a encontrarse con Tyler, un delincuente que también se ha dado a la fuga y que más tarde se convierte en su entrenador y aliado. Su aventura les lleva a conocer a Eleanor, una enfermera un tanto peculiar que se une a ellos en su viaje a través del norte de California.

Ficha técnica

Video trailer de la película

Enlaces de descarga

Rip de Bluray

Descargar The Peanut Butter Falcon (2019) Full HD 1080p SUP – CMHDD




Aportes de DPeliculasHDmega la pass es:dpeliculashdmega.org Aportes de CinemaniaHD la pass es:cinemaniahdd.com
Guardado en : Aventura , Comedia , Drama

Películas relacionadas

  • Zola (2020) HD 1080p Latino

    Zola (2020) HD 1080p Latino

    2020
    Zola (2020) HD 1080p Latino

    1h 26m 2020

    Descargar Zola (2020) HD 1080p Latino. Una camarera accede a acompañar a una bailarina exótica, su...

    Director: Sheri Davani

    Género: Comedia

    Actores: Ts Madison

  • Zola (2020) PLACEBO Full HD 1080p Latino

    Zola (2020) PLACEBO Full HD 1080p Latino

    2020
    Zola (2020) PLACEBO Full HD 1080p Latino

    1h 26m 2020

    Descargar Zola (2020) PLACEBO Full HD 1080p Latino. Una camarera accede a acompañar a una bailarina...

    Director: Sheri Davani

    Género: Comedia

    Actores: Ts Madison

  • Zola (2020) REMUX 1080p Latino

    Zola (2020) REMUX 1080p Latino

    2020
    Zola (2020) REMUX 1080p Latino

    1h 26m 2020

    Descargar Zola (2020) REMUX 1080p Latino. Una camarera accede a acompañar a una bailarina exótica,...

    Director: Sheri Davani

    Género: Comedia

    Actores: Ts Madison

descargar The Peanut Butter Falcon (2019) Full HD 1080p SUP – CMHDD Full 1080p 1080p gratis, The Peanut Butter Falcon (2019) Full HD 1080p SUP – CMHDD Full 1080p mega 1 link, The Peanut Butter Falcon (2019) Full HD 1080p SUP – CMHDD Full 1080p pelicula completa, descargar The Peanut Butter Falcon (2019) Full HD 1080p SUP – CMHDD Full 1080p gratis en mega.

The Peanut Butter Falcon (2019) Full HD 1080p SUP – CMHDD pelicula full hd, The Peanut Butter Falcon (2019) Full HD 1080p SUP – CMHDD mega latino, The Peanut Butter Falcon (2019) Full HD 1080p SUP – CMHDD 4k latino, The Peanut Butter Falcon (2019) Full HD 1080p SUP – CMHDD pelicula completa, The Peanut Butter Falcon (2019) Full HD 1080p SUP – CMHDD descargar gratis, descargar The Peanut Butter Falcon (2019) Full HD 1080p SUP – CMHDD pelicula latino, The Peanut Butter Falcon (2019) Full HD 1080p SUP – CMHDD 1 link mega, The Peanut Butter Falcon (2019) Full HD 1080p SUP – CMHDD 1 link google drive, The Peanut Butter Falcon (2019) Full HD 1080p SUP – CMHDD hd 1080p latino.