×

¿Problemas para descargar con Mozilla, EDGE? Deshabilita la opción "Abrir vinculos en una pestaña nueva" tal como lo muestra ésta imagen.

The Peacemaker (1997) REMUX 1080p Latino – CMHDD

248 vistas

Información de The Peacemaker (1997) REMUX 1080p Latino – CMHDD

Datos de la película

  • Calidad: Full 1080p
  • Audio: Español Latino AC3 5.1 BLURAY - Ingles DTS 5.1 BLURAY
  • Subtitulos: Español Latino PGS
  • Resolución: 1920x1080p
  • Formato: MKV
  • Codec: H.264
  • Encoder: Dracarys
  • Mediainfo: Clic para Mostrar Datos Ver
  • Format                      : Matroska
    Format version              : Version 4
    File size                   : 28.6 GiB
    Duration                    : 2 h 3 min
    Overall bit rate mode       : Variable
    Overall bit rate            : 33.1 Mb/s
    Movie name                  : The Peacemaker (1997) REMUX 1080p Latino - CMHDD
    Encoded date                : UTC 2023-06-07 00:05:55
    Writing application         : mkvmerge v47.0.0 ('Black Flag') 64-bit
    Writing library             : libebml v1.3.10 + libmatroska v1.5.2
    Cover                       : Yes
    Attachments                 : cover.jpg

    Video
    ID                          : 1
    ID in the original source m : 4113 (0x1011)
    Format                      : AVC
    Format/Info                 : Advanced Video Codec
    Format profile              : High@L4.1
    Format settings             : CABAC / 4 Ref Frames
    Format settings, CABAC      : Yes
    Format settings, Reference  : 4 frames
    Codec ID                    : V_MPEG4/ISO/AVC
    Duration                    : 2 h 3 min
    Bit rate mode               : Variable
    Bit rate                    : 28.1 Mb/s
    Maximum bit rate            : 36.0 Mb/s
    Width                       : 1 920 pixels
    Height                      : 1 080 pixels
    Display aspect ratio        : 16:9
    Frame rate mode             : Constant
    Frame rate                  : 23.976 (24000/1001) FPS
    Color space                 : YUV
    Chroma subsampling          : 4:2:0
    Bit depth                   : 8 bits
    Scan type                   : Progressive
    Bits/(Pixel*Frame)          : 0.564
    Stream size                 : 24.3 GiB (85%)
    Default                     : Yes
    Forced                      : No
    Color range                 : Limited
    Color primaries             : BT.709
    Transfer characteristics    : BT.709
    Matrix coefficients         : BT.709
    Original source medium      : Blu-ray

    Audio #1
    ID                          : 2
    ID in the original source m : 4352 (0x1100)
    Format                      : DTS XLL
    Format/Info                 : Digital Theater Systems
    Commercial name             : DTS-HD Master Audio
    Codec ID                    : A_DTS
    Duration                    : 2 h 3 min
    Bit rate mode               : Variable
    Bit rate                    : 4 395 kb/s
    Channel(s)                  : 6 channels
    Channel layout              : C L R Ls Rs LFE
    Sampling rate               : 48.0 kHz
    Frame rate                  : 93.750 FPS (512 SPF)
    Bit depth                   : 24 bits
    Compression mode            : Lossless
    Stream size                 : 3.80 GiB (13%)
    Language                    : English
    Default                     : No
    Forced                      : No
    Original source medium      : Blu-ray

    Audio #2
    ID                          : 3
    ID in the original source m : 4354 (0x1102)
    Format                      : AC-3
    Format/Info                 : Audio Coding 3
    Commercial name             : Dolby Digital
    Codec ID                    : A_AC3
    Duration                    : 2 h 3 min
    Bit rate mode               : Constant
    Bit rate                    : 640 kb/s
    Channel(s)                  : 6 channels
    Channel layout              : L R C LFE Ls Rs
    Sampling rate               : 48.0 kHz
    Frame rate                  : 31.250 FPS (1536 SPF)
    Compression mode            : Lossy
    Stream size                 : 567 MiB (2%)
    Language                    : Spanish
    Service kind                : Complete Main
    Default                     : Yes
    Forced                      : No
    Original source medium      : Blu-ray

    Text #1
    ID                          : 4
    ID in the original source m : 4611 (0x1203)
    Format                      : PGS
    Muxing mode                 : zlib
    Codec ID                    : S_HDMV/PGS
    Codec ID/Info               : Picture based subtitle format used on BDs/HD-DVDs
    Duration                    : 1 h 57 min
    Bit rate                    : 35.6 kb/s
    Frame rate                  : 0.309 FPS
    Count of elements           : 2182
    Stream size                 : 30.0 MiB (0%)
    Language                    : Spanish
    Default                     : No
    Forced                      : No
    Original source medium      : Blu-ray

    Text #2
    ID                          : 5
    ID in the original source m : 4614 (0x1206)
    Format                      : PGS
    Muxing mode                 : zlib
    Codec ID                    : S_HDMV/PGS
    Codec ID/Info               : Picture based subtitle format used on BDs/HD-DVDs
    Duration                    : 1 h 21 min
    Bit rate                    : 3 426 b/s
    Frame rate                  : 0.041 FPS
    Count of elements           : 203
    Stream size                 : 2.01 MiB (0%)
    Language                    : Spanish
    Default                     : No
    Forced                      : No
    Original source medium      : Blu-ray

    Menu
    00:00:00.000                : en:Capítulo 01
    00:15:49.740                : en:Capítulo 02
    00:16:53.637                : en:Capítulo 03
    00:27:00.535                : en:Capítulo 04
    00:29:03.450                : en:Capítulo 05
    00:41:51.509                : en:Capítulo 06
    00:47:45.696                : en:Capítulo 07
    00:59:10.338                : en:Capítulo 08
    01:09:28.747                : en:Capítulo 09
    01:11:38.836                : en:Capítulo 10
    01:17:04.411                : en:Capítulo 11
    01:24:15.925                : en:Capítulo 12
    01:29:25.985                : en:Capítulo 13
    01:39:12.071                : en:Capítulo 14
    01:53:08.782                : en:Capítulo 15
    01:57:54.859                : en:Capítulo 16

  • Peso: 28.6 GiB

Sinopsis

Un tren que transporta cabezas nucleares sufre un accidente en los Urales (Unión Soviética) y provoca una explosión nuclear. La Dra. Julia Kelly (Nicole Kidman), una funcionaria del gobierno americano experta en contrabando nuclear, descubre que el accidente forma parte de una trama relacionada con el tráfico de arsenal nuclear, una tapadera para ocultar el robo de material militar por parte de una organización mafiosa con destino a la venta a organizaciones terroristas. El coronel Thomas Devoe (Clooney) y ella reciben el encargo de capturar a los culpables e impedir la venta del material en la frontera iraní

Ficha técnica

Video trailer de la película

Enlaces de descarga

Rip de Bluray

Descargar The Peacemaker (1997) REMUX 1080p Latino – CMHDD


Aportes de DPeliculasHDmega la pass es:dpeliculashdmega.org Aportes de CinemaniaHD la pass es:cinemaniahdd.com Aportes recientes:cinemaniahdd.net
Guardado en : Acción , Suspenso

Películas relacionadas

  • Vanished Into the Night (2024) NF WEB-DL 1080p Latino

    Vanished Into the Night (2024) NF WEB-DL 1080p Latino

    2024
    Vanished Into the Night (2024) NF WEB-DL 1080p Latino

    1h 33m 2024

    Descargar Vanished Into the Night (2024) NF WEB-DL 1080p Latino. Un padre inmerso en un divorcio problemático...

    Director: Renato De Maria

    Género: Drama

    Actores: Riccardo Scamarcio

  • Inmaculada (2024) HD 1080p Latino

    Inmaculada (2024) HD 1080p Latino

    2024
    Inmaculada (2024) HD 1080p Latino

    1h 29m 2024

    Descargar Inmaculada (2024) HD 1080p Latino. Cecilia, una mujer de fe devota, recibe una calurosa bienvenida...

    Director: Valentina Scuro

    Género: HD 1080p

    Actores: Viviane Florentine Nicolai

  • Inmaculada (2024) PLACEBO Full HD 1080p Latino

    Inmaculada (2024) PLACEBO Full HD 1080p Latino

    2024
    Inmaculada (2024) PLACEBO Full HD 1080p Latino

    1h 29m 2024

    Descargar Inmaculada (2024) PLACEBO Full HD 1080p Latino. Cecilia, una mujer de fe devota, recibe una...

    Director: Valentina Scuro

    Género: FULL 1080p Plateadas

    Actores: Viviane Florentine Nicolai

  • Inmaculada (2024) REMUX 1080p Latino

    Inmaculada (2024) REMUX 1080p Latino

    2024
    Inmaculada (2024) REMUX 1080p Latino

    1h 29m 2024

    Descargar Inmaculada (2024) REMUX 1080p Latino. Cecilia, una mujer de fe devota, recibe una calurosa...

    Director: Valentina Scuro

    Género: Misterio

    Actores: Viviane Florentine Nicolai

descargar The Peacemaker (1997) REMUX 1080p Latino – CMHDD Full 1080p 1080p gratis, The Peacemaker (1997) REMUX 1080p Latino – CMHDD Full 1080p mega 1 link, The Peacemaker (1997) REMUX 1080p Latino – CMHDD Full 1080p pelicula completa, descargar The Peacemaker (1997) REMUX 1080p Latino – CMHDD Full 1080p gratis en mega.

The Peacemaker (1997) REMUX 1080p Latino – CMHDD pelicula full hd, The Peacemaker (1997) REMUX 1080p Latino – CMHDD mega latino, The Peacemaker (1997) REMUX 1080p Latino – CMHDD 4k latino, The Peacemaker (1997) REMUX 1080p Latino – CMHDD pelicula completa, The Peacemaker (1997) REMUX 1080p Latino – CMHDD descargar gratis, descargar The Peacemaker (1997) REMUX 1080p Latino – CMHDD pelicula latino, The Peacemaker (1997) REMUX 1080p Latino – CMHDD 1 link mega, The Peacemaker (1997) REMUX 1080p Latino – CMHDD 1 link google drive, The Peacemaker (1997) REMUX 1080p Latino – CMHDD hd 1080p latino.
Comentarios 0