×

¿Problemas para descargar con Mozilla, EDGE? Deshabilita la opción "Abrir vinculos en una pestaña nueva" tal como lo muestra ésta imagen.

Vidas en Pedazos (2019) Full HD 1080p Latino

1.911 vistas

Información de Vidas en Pedazos (2019) Full HD 1080p Latino

Datos de la película

  • Calidad: Full 1080p
  • Audio: Español Latino AC3 5.1 iTUNES - Ingles DTS 5.1 BLURAY
  • Subtitulos: Español Latino SRT- FORZADOS SRT
  • Resolución: 1920x1080p
  • Formato: MKV
  • Codec: H.264
  • Encoder: CinefiloCool
  • Mediainfo: Clic para Mostrar Datos Ver
  • Vidas en pedazos (2019) Full HD 1080p Latino-CMHDD.mkv
    Format                      : Matroska
    Format version              : Version 4
    File size                   : 3.72 GiB
    Duration                    : 1 h 33 min
    Overall bit rate mode       : Variable
    Overall bit rate            : 5 666 kb/s
    Movie name                  : The Parts You Lose (2019) CinemaniaHDD.Net
    Encoded date                : UTC 2020-03-21 08:12:24
    Writing application         : mkvmerge v42.0.0 ('Overtime') 64-bit
    Writing library             : libebml v1.3.10 + libmatroska v1.5.2
    Attachments                 : CINEMANIAHD.png

    Video
    ID                          : 1
    Format                      : AVC
    Format/Info                 : Advanced Video Codec
    Format profile              : High@L4.1
    Format settings             : CABAC / 4 Ref Frames
    Format settings, CABAC      : Yes
    Format settings, ReFrames   : 4 frames
    Codec ID                    : V_MPEG4/ISO/AVC
    Duration                    : 1 h 33 min
    Bit rate                    : 1 961 kb/s
    Width                       : 1 920 pixels
    Height                      : 1 080 pixels
    Display aspect ratio        : 16:9
    Frame rate mode             : Constant
    Frame rate                  : 23.976 (24000/1001) FPS
    Color space                 : YUV
    Chroma subsampling          : 4:2:0
    Bit depth                   : 8 bits
    Scan type                   : Progressive
    Bits/(Pixel*Frame)          : 0.039
    Stream size                 : 1.29 GiB (35%)
    Title                       : Full HD1080p [Bluray]
    Writing library             : x264 core 157 r2935 545de2f
    Encoding settings           : cabac=1 / ref=4 / deblock=1:0:0 / analyse=0x3:0x133 / me=tesa / subme=11 / psy=1 / psy_rd=1.00:0.00 / mixed_ref=1 / me_range=24 / chroma_me=1 / trellis=2 / 8x8dct=1 / cqm=0 / deadzone=21,11 / fast_pskip=0 / chroma_qp_offset=-2 / threads=34 / lookahead_threads=8 / sliced_threads=0 / nr=0 / decimate=1 / interlaced=0 / bluray_compat=0 / constrained_intra=0 / bframes=16 / b_pyramid=2 / b_adapt=2 / b_bias=0 / direct=3 / weightb=1 / open_gop=0 / weightp=2 / keyint=240 / keyint_min=24 / scenecut=40 / intra_refresh=0 / rc_lookahead=60 / rc=crf / mbtree=1 / crf=20.0 / qcomp=0.60 / qpmin=0 / qpmax=69 / qpstep=4 / vbv_maxrate=62500 / vbv_bufsize=78125 / crf_max=0.0 / nal_hrd=none / filler=0 / ip_ratio=1.40 / aq=1:1.00
    Default                     : Yes
    Forced                      : Yes
    Color range                 : Limited
    Color primaries             : BT.709
    Transfer characteristics    : BT.709
    Matrix coefficients         : BT.709

    Audio #1
    ID                          : 2
    Format                      : AC-3
    Format/Info                 : Audio Coding 3
    Commercial name             : Dolby Digital
    Codec ID                    : A_AC3
    Duration                    : 1 h 33 min
    Bit rate mode               : Constant
    Bit rate                    : 448 kb/s
    Channel(s)                  : 6 channels
    Channel layout              : L R C LFE Ls Rs
    Sampling rate               : 48.0 kHz
    Frame rate                  : 31.250 FPS (1536 SPF)
    Bit depth                   : 16 bits
    Compression mode            : Lossy
    Stream size                 : 301 MiB (8%)
    Title                       : AC3_5.1_Web_Esp
    Language                    : Spanish
    Service kind                : Complete Main
    Default                     : Yes
    Forced                      : Yes

    Audio #2
    ID                          : 3
    Format                      : DTS XLL
    Format/Info                 : Digital Theater Systems
    Commercial name             : DTS-HD Master Audio
    Codec ID                    : A_DTS
    Duration                    : 1 h 33 min
    Bit rate mode               : Variable
    Bit rate                    : 3 247 kb/s
    Channel(s)                  : 6 channels
    Channel layout              : C L R Ls Rs LFE
    Sampling rate               : 48.0 kHz
    Frame rate                  : 93.750 FPS (512 SPF)
    Bit depth                   : 24 bits
    Compression mode            : Lossless
    Stream size                 : 2.13 GiB (57%)
    Title                       : DTS-HD_5.1_Bluray_Eng
    Language                    : English
    Default                     : No
    Forced                      : No

    Text #1
    ID                          : 4
    Format                      : UTF-8
    Codec ID                    : S_TEXT/UTF8
    Codec ID/Info               : UTF-8 Plain Text
    Duration                    : 1 h 6 min
    Bit rate                    : 0 b/s
    Count of elements           : 13
    Stream size                 : 372 Bytes (0%)
    Title                       : Sub_Forzados
    Language                    : Spanish
    Default                     : Yes
    Forced                      : Yes

    Text #2
    ID                          : 5
    Format                      : UTF-8
    Codec ID                    : S_TEXT/UTF8
    Codec ID/Info               : UTF-8 Plain Text
    Duration                    : 1 h 26 min
    Bit rate                    : 28 b/s
    Count of elements           : 660
    Stream size                 : 18.1 KiB (0%)
    Title                       : Sub_Esp
    Language                    : Spanish
    Default                     : No
    Forced                      : No

    Text #3
    ID                          : 6
    Format                      : PGS
    Muxing mode                 : zlib
    Codec ID                    : S_HDMV/PGS
    Codec ID/Info               : Picture based subtitle format used on BDs/HD-DVDs
    Duration                    : 1 h 27 min
    Bit rate                    : 20.2 kb/s
    Count of elements           : 1502
    Stream size                 : 12.6 MiB (0%)
    Title                       : Sub_Eng [PGS]
    Language                    : English
    Default                     : No
    Forced                      : No

    Menu
    00:00:00.000                : en:Chapter 1
    00:05:55.105                : en:Chapter 2
    00:11:03.246                : en:Chapter 3
    00:17:56.951                : en:Chapter 4
    00:24:17.331                : en:Chapter 5
    00:29:16.505                : en:Chapter 6
    00:35:04.602                : en:Chapter 7
    00:41:26.484                : en:Chapter 8
    00:47:24.592                : en:Chapter 9
    00:52:13.213                : en:Chapter 10
    00:57:50.801                : en:Chapter 11
    01:07:19.035                : en:Chapter 12
    01:13:01.877                : en:Chapter 13
    01:15:35.823                : en:Chapter 14
    01:23:12.112                : en:Chapter 15
    01:28:28.803                : en:Chapter 16

  • Peso: 3.72 GiB

Sinopsis

Descargar Vidas en Pedazos [The Parts You Lose] (2019) Full HD 1080p Latino. Un joven muchacho de un pequeño pueblo de Dakota del Norte entabla amistad con un fugitivo potencialmente peligroso.

Ficha técnica

Video trailer de la película

Enlaces de descarga

Rip de Bluray

Descargar Vidas en Pedazos (2019) Full HD 1080p Latino




Aportes de DPeliculasHDmega la pass es:dpeliculashdmega.org Aportes de CinemaniaHD la pass es:cinemaniahdd.com

Películas relacionadas

  • Mi amigo el dragón (2016) Full HD 1080p Latino

    Mi amigo el dragón (2016) Full HD 1080p Latino

    2016
    Mi amigo el dragón (2016) Full HD 1080p Latino

    1h 43m 2016

    Descargar Mi amigo el dragón (2016) Full HD 1080p Latino. Durante años el Sr. Meacham, un viejo tallador...

    Director: Joe Nolan

    Género: Aventura

    Actores: William J. Rawbone

  • El discurso del Rey (2010) 1080p Latino

    El discurso del Rey (2010) 1080p Latino

    2010
    El discurso del Rey (2010) 1080p Latino

    1h 58m 2010

    Descargar El discurso del Rey (2010) 1080p Latino. El duque de York se convirtió en rey de Gran Bretaña...

    Director: Tom Hooper

    Género: Drama

    Actores: Tony Earnshaw

  • El discurso del Rey (2010) Full HD 1080p Latino

    El discurso del Rey (2010) Full HD 1080p Latino

    2010
    El discurso del Rey (2010) Full HD 1080p Latino

    1h 58m 2010

    Descargar El discurso del Rey (2010) Full HD 1080p Latino. El duque de York se convirtió en rey de Gran...

    Director: Tom Hooper

    Género: Drama

    Actores: Tony Earnshaw

  • El discurso del Rey (2010) REMUX 1080p Latino

    El discurso del Rey (2010) REMUX 1080p Latino

    2010
    El discurso del Rey (2010) REMUX 1080p Latino

    1h 58m 2010

    Descargar El discurso del Rey (2010) REMUX 1080p Latino. El duque de York se convirtió en rey de Gran...

    Director: Tom Hooper

    Género: Drama

    Actores: Tony Earnshaw

descargar Vidas en Pedazos (2019) Full HD 1080p Latino Full 1080p 1080p gratis, Vidas en Pedazos (2019) Full HD 1080p Latino Full 1080p mega 1 link, Vidas en Pedazos (2019) Full HD 1080p Latino Full 1080p pelicula completa, descargar Vidas en Pedazos (2019) Full HD 1080p Latino Full 1080p gratis en mega.

Vidas en Pedazos (2019) Full HD 1080p Latino pelicula full hd, Vidas en Pedazos (2019) Full HD 1080p Latino mega latino, Vidas en Pedazos (2019) Full HD 1080p Latino 4k latino, Vidas en Pedazos (2019) Full HD 1080p Latino pelicula completa, Vidas en Pedazos (2019) Full HD 1080p Latino descargar gratis, descargar Vidas en Pedazos (2019) Full HD 1080p Latino pelicula latino, Vidas en Pedazos (2019) Full HD 1080p Latino 1 link mega, Vidas en Pedazos (2019) Full HD 1080p Latino 1 link google drive, Vidas en Pedazos (2019) Full HD 1080p Latino hd 1080p latino.
Comentarios 2
  • Luis Marcelo - 23 marzo, 2020

    una consulta, tus peliculas del formato bdrip siempre tienen un menor peso en comparación con las de otras páginas a que se debe?

    • CinefiloCool - 26 marzo, 2020

      Es porque se utiliza codificacion con CRF en lugar de Bitrate fijo con 2pass, en esta configuracion el programa determina cuanto bitrate y tamaño necesita quitando donde le sobra y poniendo donde le falte; es por eso que no se sabe cuanto pesará hasta el final. toma como ejemplo star wars, que tiene una imagen limpia pero mucho CGI necesita mas tamaño de video, ahora observa Knives Out que no tiene mucho CGI pero la imagen tiene su buena parte de grano, el programa lo mantendrá lo maximo posible por lo que el peso sera mayor. ahora elige cualquier pelicula de drama que seguramente tendra escenas oscuras, sin CGI, Grano o tanto movimiento, el peso sera considerablemente menor ya que no requiere de mucho.