×

¿Problemas para descargar con Mozilla, EDGE? Deshabilita la opción "Abrir vinculos en una pestaña nueva" tal como lo muestra ésta imagen.

The Outsiders (1983) [THEATRICAL] REMUX 4K HDR Latino – CMHDD

94 vistas

Información de The Outsiders (1983) [THEATRICAL] REMUX 4K HDR Latino – CMHDD

Datos de la película

  • Calidad: 4K HDR
  • Audio: Español Latino AC3 2.0 BLURAY - Ingles DTS 5.1 BLURAY
  • Subtitulos: Español Latino PGS
  • Resolución: 3840x2160p
  • Formato: MKV
  • Codec: H.264
  • Encoder: Dracarys
  • Mediainfo: Clic para Mostrar Datos Ver
  • Format                      : Matroska
    Format version              : Version 4
    File size                   : 43.1 GiB
    Duration                    : 1 h 31 min
    Overall bit rate mode       : Variable
    Overall bit rate            : 67.3 Mb/s
    Movie name                  : The Outsiders (1983) [THEATRICAL] REMUX 4K HDR Latino - CMHDD
    Encoded date                : UTC 2021-11-17 02:26:26
    Writing application         : mkvmerge v17.0.0 ('Be Ur Friend') 64-bit
    Writing library             : libebml v1.3.5 + libmatroska v1.4.8

    Video
    ID                          : 1
    Format                      : HEVC
    Format/Info                 : High Efficiency Video Coding
    Format profile              : Main 10@L5.1@High
    HDR format                  : SMPTE ST 2086, HDR10 compatible
    Codec ID                    : V_MPEGH/ISO/HEVC
    Duration                    : 1 h 31 min
    Bit rate                    : 64.3 Mb/s
    Width                       : 3 840 pixels
    Height                      : 2 160 pixels
    Display aspect ratio        : 16:9
    Frame rate mode             : Constant
    Frame rate                  : 23.976 (24000/1001) FPS
    Color space                 : YUV
    Chroma subsampling          : 4:2:0 (Type 2)
    Bit depth                   : 10 bits
    Bits/(Pixel*Frame)          : 0.323
    Stream size                 : 41.2 GiB (96%)
    Default                     : Yes
    Forced                      : No
    Color range                 : Limited
    Color primaries             : BT.2020
    Transfer characteristics    : PQ
    Matrix coefficients         : BT.2020 non-constant
    Mastering display color pri : Display P3
    Mastering display luminance : min: 0.0050 cd/m2, max: 4000 cd/m2
    Maximum Content Light Level : 1580 cd/m2
    Maximum Frame-Average Light : 144 cd/m2

    Audio #1
    ID                          : 2
    Format                      : DTS XLL
    Format/Info                 : Digital Theater Systems
    Commercial name             : DTS-HD Master Audio
    Codec ID                    : A_DTS
    Duration                    : 1 h 31 min
    Bit rate mode               : Variable
    Bit rate                    : 2 781 kb/s
    Channel(s)                  : 6 channels
    Channel layout              : C L R Ls Rs LFE
    Sampling rate               : 48.0 kHz
    Frame rate                  : 93.750 FPS (512 SPF)
    Bit depth                   : 24 bits
    Compression mode            : Lossless
    Stream size                 : 1.78 GiB (4%)
    Language                    : English
    Default                     : No
    Forced                      : No

    Audio #2
    ID                          : 3
    Format                      : AC-3
    Format/Info                 : Audio Coding 3
    Commercial name             : Dolby Digital
    Codec ID                    : A_AC3
    Duration                    : 1 h 31 min
    Bit rate mode               : Constant
    Bit rate                    : 192 kb/s
    Channel(s)                  : 2 channels
    Channel layout              : L R
    Sampling rate               : 48.0 kHz
    Frame rate                  : 31.250 FPS (1536 SPF)
    Compression mode            : Lossy
    Delay relative to video     : 14 ms
    Stream size                 : 126 MiB (0%)
    Language                    : Spanish
    Service kind                : Complete Main
    Default                     : Yes
    Forced                      : No

    Text #1
    ID                          : 4
    Format                      : PGS
    Muxing mode                 : zlib
    Codec ID                    : S_HDMV/PGS
    Codec ID/Info               : Picture based subtitle format used on BDs/HD-DVDs
    Duration                    : 1 h 27 min
    Bit rate                    : 35.0 kb/s
    Count of elements           : 2622
    Stream size                 : 22.0 MiB (0%)
    Language                    : Spanish
    Default                     : No
    Forced                      : No

    Text #2
    ID                          : 5
    Format                      : PGS
    Muxing mode                 : zlib
    Codec ID                    : S_HDMV/PGS
    Codec ID/Info               : Picture based subtitle format used on BDs/HD-DVDs
    Duration                    : 1 h 27 min
    Bit rate                    : 307 b/s
    Count of elements           : 18
    Stream size                 : 198 KiB (0%)
    Language                    : Spanish
    Default                     : No
    Forced                      : No

    Menu
    00:00:00.000                : en:Chapter 1
    00:03:18.865                : en:Chapter 2
    00:05:45.720                : en:Chapter 3
    00:15:03.277                : en:Chapter 4
    00:18:46.416                : en:Chapter 5
    00:21:42.050                : en:Chapter 6
    00:23:34.830                : en:Chapter 7
    00:28:41.970                : en:Chapter 8
    00:32:05.006                : en:Chapter 9
    00:34:13.176                : en:Chapter 10
    00:39:51.597                : en:Chapter 11
    00:42:03.020                : en:Chapter 12
    00:44:39.009                : en:Chapter 13
    00:47:59.835                : en:Chapter 14
    00:51:28.543                : en:Chapter 15
    00:53:17.194                : en:Chapter 16
    00:56:36.601                : en:Chapter 17
    01:00:53.274                : en:Chapter 18
    01:04:13.099                : en:Chapter 19
    01:07:00.766                : en:Chapter 20
    01:09:47.474                : en:Chapter 21
    01:12:17.166                : en:Chapter 22
    01:17:18.634                : en:Chapter 23
    01:19:08.577                : en:Chapter 24
    01:21:42.606                : en:Chapter 25
    01:25:26.162                : en:Chapter 26

  • Peso: 43.1 GiB

Sinopsis

Dos bandas de adolescentes rivales. Algunos todavía van al colegio asidos a un futuro con esperanza. Otros son jóvenes marginados (o desplazados: «outsiders») acicalados de gomina. Casi todos a la búsqueda de un sitio en una sociedad en la que no se ven reflejados, y en la que el camino más recto conlleva una fácil tentación por la violencia… Apenas unos meses antes, el propio Coppola había estrenado otra historia de pandillas juveniles con «La ley de la calle» (Rumble Fish, 1983), un hipnótico relato poco convencional en su formato que incluía incluso toques oníricos.

Ficha técnica

Video trailer de la película

Enlaces de descarga

Rip de Bluray

Descargar The Outsiders (1983) [THEATRICAL] REMUX 4K HDR Latino – CMHDD


Aportes de DPeliculasHDmega la pass es:dpeliculashdmega.org Aportes de CinemaniaHD la pass es:cinemaniahdd.com
Guardado en : Crimen , Drama

Películas relacionadas

  • Wire Room (2022) HD 1080p Latino

    Wire Room (2022) HD 1080p Latino

    2022
    Wire Room (2022) HD 1080p Latino

    1h 37m 2022

    Descargar Wire Room (2022) HD 1080p Latino. Mientras está de servicio en la sala de cables, un agente...

    Director: Matt Eskandari

    Género: Acción

    Actores: Texas Battle

  • Wire Room (2022) PLACEBO Full HD 1080p Latino

    Wire Room (2022) PLACEBO Full HD 1080p Latino

    2022
    Wire Room (2022) PLACEBO Full HD 1080p Latino

    1h 37m 2022

    Descargar Wire Room (2022) PLACEBO Full HD 1080p Latino. Mientras está de servicio en la sala de cables,...

    Director: Matt Eskandari

    Género: Acción

    Actores: Texas Battle

  • Wire Room (2022) REMUX 1080p Latino

    Wire Room (2022) REMUX 1080p Latino

    2022
    Wire Room (2022) REMUX 1080p Latino

    1h 37m 2022

    Descargar Wire Room (2022) REMUX 1080p Latino. Mientras está de servicio en la sala de cables, un agente...

    Director: Matt Eskandari

    Género: Acción

    Actores: Texas Battle

descargar The Outsiders (1983) [THEATRICAL] REMUX 4K HDR Latino – CMHDD 4K HDR 1080p gratis, The Outsiders (1983) [THEATRICAL] REMUX 4K HDR Latino – CMHDD 4K HDR mega 1 link, The Outsiders (1983) [THEATRICAL] REMUX 4K HDR Latino – CMHDD 4K HDR pelicula completa, descargar The Outsiders (1983) [THEATRICAL] REMUX 4K HDR Latino – CMHDD 4K HDR gratis en mega.

The Outsiders (1983) [THEATRICAL] REMUX 4K HDR Latino – CMHDD pelicula full hd, The Outsiders (1983) [THEATRICAL] REMUX 4K HDR Latino – CMHDD mega latino, The Outsiders (1983) [THEATRICAL] REMUX 4K HDR Latino – CMHDD 4k latino, The Outsiders (1983) [THEATRICAL] REMUX 4K HDR Latino – CMHDD pelicula completa, The Outsiders (1983) [THEATRICAL] REMUX 4K HDR Latino – CMHDD descargar gratis, descargar The Outsiders (1983) [THEATRICAL] REMUX 4K HDR Latino – CMHDD pelicula latino, The Outsiders (1983) [THEATRICAL] REMUX 4K HDR Latino – CMHDD 1 link mega, The Outsiders (1983) [THEATRICAL] REMUX 4K HDR Latino – CMHDD 1 link google drive, The Outsiders (1983) [THEATRICAL] REMUX 4K HDR Latino – CMHDD hd 1080p latino.