×

¿Problemas para descargar con Mozilla, EDGE? Deshabilita la opción "Abrir vinculos en una pestaña nueva" tal como lo muestra ésta imagen.

The Outsider (2020) Temporada 1 AMZN WEB-DL 1080p Latino

8.175 vistas

Información de The Outsider (2020) Temporada 1 AMZN WEB-DL 1080p Latino

Datos de la película

  • Calidad: WEBDL
  • Audio: Español Latino AC3 2.0 - Ingles AC3 5.1 HBO
  • Subtitulos: Español Latino SRT- FORZADOS SRT
  • Resolución: 1920x1080
  • Formato: MKV
  • Codec: H.264
  • Encoder: cinemaniahdd
  • Mediainfo: Clic para Mostrar Datos Ver
  • The Outsider S01E08 AMZN WEB-DL 1080p Latino.mkv
    Format                      : Matroska
    Format version              : Version 4
    File size                   : 3.32 GiB
    Duration                    : 56 min 19 s
    Overall bit rate            : 8 448 kb/s
    Movie name                  : The Outsider S01E08 - CinemaniaHDD.Net
    Encoded date                : UTC 2020-02-24 03:27:42
    Writing application         : mkvmerge v42.0.0 ('Overtime') 64-bit
    Writing library             : libebml v1.3.10 + libmatroska v1.5.2

    Video
    ID                          : 1
    Format                      : AVC
    Format/Info                 : Advanced Video Codec
    Format profile              : High@L4
    Format settings             : CABAC / 4 Ref Frames
    Format settings, CABAC      : Yes
    Format settings, ReFrames   : 4 frames
    Codec ID                    : V_MPEG4/ISO/AVC
    Duration                    : 56 min 19 s
    Bit rate mode               : Constant
    Bit rate                    : 7 550 kb/s
    Nominal bit rate            : 10 000 kb/s
    Width                       : 1 920 pixels
    Height                      : 1 080 pixels
    Display aspect ratio        : 16:9
    Frame rate mode             : Constant
    Frame rate                  : 23.976 (24000/1001) FPS
    Color space                 : YUV
    Chroma subsampling          : 4:2:0
    Bit depth                   : 8 bits
    Scan type                   : Progressive
    Bits/(Pixel*Frame)          : 0.152
    Stream size                 : 2.97 GiB (89%)
    Title                       : CinemaniaHDD
    Default                     : Yes
    Forced                      : No
    Color range                 : Limited
    Color primaries             : BT.709
    Transfer characteristics    : BT.709
    Matrix coefficients         : BT.709

    Audio #1
    ID                          : 2
    Format                      : AC-3
    Format/Info                 : Audio Coding 3
    Commercial name             : Dolby Digital
    Codec ID                    : A_AC3
    Duration                    : 56 min 19 s
    Bit rate mode               : Constant
    Bit rate                    : 256 kb/s
    Channel(s)                  : 2 channels
    Channel layout              : L R
    Sampling rate               : 48.0 kHz
    Frame rate                  : 31.250 FPS (1536 SPF)
    Bit depth                   : 16 bits
    Compression mode            : Lossy
    Delay relative to video     : -20 ms
    Stream size                 : 103 MiB (3%)
    Title                       : Español latino [CinemaniaHDD]
    Language                    : Spanish
    Service kind                : Complete Main
    Default                     : Yes
    Forced                      : No

    Audio #2
    ID                          : 3
    Format                      : E-AC-3
    Format/Info                 : Enhanced AC-3
    Commercial name             : Dolby Digital Plus
    Codec ID                    : A_EAC3
    Duration                    : 56 min 19 s
    Bit rate mode               : Constant
    Bit rate                    : 640 kb/s
    Channel(s)                  : 6 channels
    Channel layout              : L R C LFE Ls Rs
    Sampling rate               : 48.0 kHz
    Frame rate                  : 31.250 FPS (1536 SPF)
    Compression mode            : Lossy
    Delay relative to video     : 3 ms
    Stream size                 : 258 MiB (8%)
    Title                       : Inglés [CinemaniaHDD]
    Language                    : English
    Service kind                : Complete Main
    Default                     : No
    Forced                      : No

    Text #1
    ID                          : 4
    Format                      : UTF-8
    Codec ID                    : S_TEXT/UTF8
    Codec ID/Info               : UTF-8 Plain Text
    Duration                    : 45 min 26 s
    Bit rate                    : 0 b/s
    Count of elements           : 5
    Stream size                 : 110 Bytes (0%)
    Title                       : Forzados [CinemaniaHDD]
    Language                    : Spanish
    Default                     : Yes
    Forced                      : Yes

    Text #2
    ID                          : 5
    Format                      : UTF-8
    Codec ID                    : S_TEXT/UTF8
    Codec ID/Info               : UTF-8 Plain Text
    Duration                    : 52 min 42 s
    Bit rate                    : 52 b/s
    Count of elements           : 626
    Stream size                 : 20.1 KiB (0%)
    Title                       : Español latino [CinemaniaHDD]
    Language                    : Spanish
    Default                     : No
    Forced                      : No

    Text #3
    ID                          : 6
    Format                      : UTF-8
    Codec ID                    : S_TEXT/UTF8
    Codec ID/Info               : UTF-8 Plain Text
    Duration                    : 56 min 9 s
    Bit rate                    : 67 b/s
    Count of elements           : 789
    Stream size                 : 27.6 KiB (0%)
    Title                       : Inglés [CinemaniaHDD]
    Language                    : English
    Default                     : No
    Forced                      : No

     

  • Peso: 3.32 GiB C/U --- 10 CAPITULOS AGREGADOS

Sinopsis

Basado en la exitosa novela de Stephen King y producida por el ganador del Globo de Oro® Jason Bateman, este thriller psicológico de HBO sigue la aparentemente normal investigación del asesinato de un niño. Pero cuando el caso lleva hasta una siniestra fuerza sobrenatural, quedará en manos de un detective y un poco ortodoxo investigador privado el explicar lo inexplicable.

10 CAPITULOS AGREGADOS

FINAL DE TEMPORADA

Ficha técnica

Video trailer de la película

Enlaces de descarga

Rip de Bluray

Descargar The Outsider (2020) Temporada 1 AMZN WEB-DL 1080p Latino




Aportes de DPeliculasHDmega la pass es:dpeliculashdmega.org Aportes de CinemaniaHD la pass es:cinemaniahdd.com
Guardado en : Crimen , Drama , HBO , Misterio , Series

Películas relacionadas

  • Blonde (2022) NF WEB-DL 1080p Latino

    Blonde (2022) NF WEB-DL 1080p Latino

    2022
    Blonde (2022) NF WEB-DL 1080p Latino

    2h 46m 2022

    Descargar Blonde (2022) NF WEB-DL 1080p Latino. Basada en el bestseller de la cinco veces finalista al...

    Director: Kristin Bree Calabrese

    Género: Drama

    Actores: Xavier Samuel

  • Star Wars: Andor (2022) Temporada 1 WEB-DL 1080p Latino

    Star Wars: Andor (2022) Temporada 1 WEB-DL 1080p Latino

    2022
    Star Wars: Andor (2022) Temporada 1 WEB-DL 1080p Latino

    0h 0m 2022

    Descargar Star Wars: Andor (2022) Temporada 1 WEB-DL 1080p Latino. Serie precuela de 'Star Wars; Rogue...

    Director: Tony Gilroy

    Género: Action & Adventure

    Actores: Stellan Skarsgård

  • Borrego: Sal Del Camino (2022) HD 1080p Latino

    Borrego: Sal Del Camino (2022) HD 1080p Latino

    2022
    Borrego: Sal Del Camino (2022) HD 1080p Latino

    1h 42m 2022

    Descargar Borrego: Sal Del Camino (2022) HD 1080p Latino. Una joven botánica se traslada a un pequeño...

    Director: Jesse Harris

    Género: Crimen

    Actores: Olivia Trujillo

descargar The Outsider (2020) Temporada 1 AMZN WEB-DL 1080p Latino WEBDL 1080p gratis, The Outsider (2020) Temporada 1 AMZN WEB-DL 1080p Latino WEBDL mega 1 link, The Outsider (2020) Temporada 1 AMZN WEB-DL 1080p Latino WEBDL serie completa, descargar The Outsider (2020) Temporada 1 AMZN WEB-DL 1080p Latino WEBDL gratis en mega.

The Outsider (2020) Temporada 1 AMZN WEB-DL 1080p Latino pelicula full hd, The Outsider (2020) Temporada 1 AMZN WEB-DL 1080p Latino mega latino, The Outsider (2020) Temporada 1 AMZN WEB-DL 1080p Latino 4k latino, The Outsider (2020) Temporada 1 AMZN WEB-DL 1080p Latino pelicula completa, The Outsider (2020) Temporada 1 AMZN WEB-DL 1080p Latino descargar gratis, descargar The Outsider (2020) Temporada 1 AMZN WEB-DL 1080p Latino pelicula latino, The Outsider (2020) Temporada 1 AMZN WEB-DL 1080p Latino 1 link mega, The Outsider (2020) Temporada 1 AMZN WEB-DL 1080p Latino 1 link google drive, The Outsider (2020) Temporada 1 AMZN WEB-DL 1080p Latino hd 1080p latino.
Comentarios 7
  • jonatan - 10 marzo, 2020

    esta en español españa…no en latino

    • CinemaniaHDD - 10 marzo, 2020

      deje las drogas compañero jajajajaj xD

  • Fredy - 08 marzo, 2020

    Muchas gracias, suben los capítulos a la velocidad de la luz en ALTA DEFINICIÓN. Excelente página♥️?

  • Juan Pablo - 12 febrero, 2020

    Cuando van a agregar el capitulo 6?

    • CinemaniaHDD - 18 febrero, 2020

      subido

  • Ethan - 28 enero, 2020

    Excelente muchas Gracias! por agregar el nuevo capitulo 4

  • g. ch. c - 12 enero, 2020

    muchas gracias!