×

¿Problemas para descargar con Mozilla, EDGE? Deshabilita la opción "Abrir vinculos en una pestaña nueva" tal como lo muestra ésta imagen.

La otra Reina (2008) REMUX 1080p Latino

111 vistas

Información de La otra Reina (2008) REMUX 1080p Latino

Datos de la película

  • Calidad: Full 1080p
  • Audio: Se especifica abajo de la Sinopsis
  • Subtitulos: Español Latino PGS - Ingles PGS
  • Resolución: 1920x1080p
  • Formato: MKV
  • Codec: H.264
  • Encoder: CinefiloCool
  • Mediainfo: Clic para Mostrar Datos Ver
  • La Otra Reina (2008) REMUX 1080p Latino-CMHDD.mkv
    Format                      : Matroska
    Format version              : Version 4
    File size                   : 35.1 GiB
    Duration                    : 1 h 55 min
    Overall bit rate mode       : Variable
    Overall bit rate            : 43.5 Mb/s
    Movie name                  : The Other Boleyn Girl (2008) CinemaniaHDD.Net
    Encoded date                : UTC 2021-10-01 07:22:25
    Writing application         : mkvmerge v56.1.0 ('My Friend') 64-bit
    Writing library             : libebml v1.4.2 + libmatroska v1.6.4
    Attachments                 : CINEMANIAHD.png

    Video
    ID                          : 1
    ID in the original source m : 4113 (0x1011)
    Format                      : AVC
    Format/Info                 : Advanced Video Codec
    Format profile              : High@L4.1
    Format settings             : CABAC / 4 Ref Frames
    Format settings, CABAC      : Yes
    Format settings, Reference  : 4 frames
    Codec ID                    : V_MPEG4/ISO/AVC
    Duration                    : 1 h 55 min
    Bit rate mode               : Variable
    Bit rate                    : 33.9 Mb/s
    Maximum bit rate            : 38.0 Mb/s
    Width                       : 1 920 pixels
    Height                      : 1 080 pixels
    Display aspect ratio        : 16:9
    Frame rate mode             : Constant
    Frame rate                  : 23.976 (24000/1001) FPS
    Color space                 : YUV
    Chroma subsampling          : 4:2:0
    Bit depth                   : 8 bits
    Scan type                   : Progressive
    Bits/(Pixel*Frame)          : 0.682
    Stream size                 : 27.4 GiB (78%)
    Title                       : REMUX HD1080p [CinemaniaHDD]
    Default                     : Yes
    Forced                      : Yes
    Color range                 : Limited
    Color primaries             : BT.709
    Transfer characteristics    : BT.709
    Matrix coefficients         : BT.709
    Original source medium      : Blu-ray

    Audio #1
    ID                          : 2
    Format                      : FLAC
    Format/Info                 : Free Lossless Audio Codec
    Codec ID                    : A_FLAC
    Duration                    : 1 h 55 min
    Bit rate mode               : Variable
    Bit rate                    : 3 609 kb/s
    Channel(s)                  : 6 channels
    Channel layout              : L R C LFE Ls Rs
    Sampling rate               : 48.0 kHz
    Frame rate                  : 11.719 FPS (4096 SPF)
    Bit depth                   : 24 bits
    Compression mode            : Lossless
    Stream size                 : 2.91 GiB (8%)
    Title                       : Español Latino ORG FLAC Sony [CinemaniaHDD]
    Writing library             : libFLAC 1.0.4 (UTC 2014-11-25)
    Language                    : Spanish
    Default                     : Yes
    Forced                      : Yes

    Audio #2
    ID                          : 3
    Format                      : AC-3
    Format/Info                 : Audio Coding 3
    Commercial name             : Dolby Digital
    Codec ID                    : A_AC3
    Duration                    : 1 h 55 min
    Bit rate mode               : Constant
    Bit rate                    : 640 kb/s
    Channel(s)                  : 6 channels
    Channel layout              : L R C LFE Ls Rs
    Sampling rate               : 48.0 kHz
    Frame rate                  : 31.250 FPS (1536 SPF)
    Compression mode            : Lossy
    Stream size                 : 529 MiB (1%)
    Title                       : Español Latino ORG AC3 Sony [CinemaniaHDD]
    Language                    : Spanish
    Service kind                : Complete Main
    Default                     : No
    Forced                      : No

    Audio #3
    ID                          : 4
    Format                      : E-AC-3
    Format/Info                 : Enhanced AC-3
    Commercial name             : Dolby Digital Plus
    Codec ID                    : A_EAC3
    Duration                    : 1 h 55 min
    Bit rate mode               : Constant
    Bit rate                    : 224 kb/s
    Channel(s)                  : 2 channels
    Channel layout              : L R
    Sampling rate               : 48.0 kHz
    Frame rate                  : 31.250 FPS (1536 SPF)
    Compression mode            : Lossy
    Stream size                 : 185 MiB (1%)
    Title                       : Español Latino REDUB EAC3 [CinemaniaHDD]
    Language                    : Spanish
    Service kind                : Complete Main
    Default                     : No
    Forced                      : No

    Audio #4
    ID                          : 5
    Format                      : AC-3
    Format/Info                 : Audio Coding 3
    Commercial name             : Dolby Digital
    Codec ID                    : A_AC3
    Duration                    : 1 h 55 min
    Bit rate mode               : Constant
    Bit rate                    : 256 kb/s
    Channel(s)                  : 2 channels
    Channel layout              : L R
    Sampling rate               : 48.0 kHz
    Frame rate                  : 31.250 FPS (1536 SPF)
    Compression mode            : Lossy
    Stream size                 : 211 MiB (1%)
    Title                       : Español Latino REDUB AC3 [CinemaniaHDD]
    Language                    : Spanish
    Service kind                : Complete Main
    Default                     : No
    Forced                      : No

    Audio #5
    ID                          : 6
    ID in the original source m : 4352 (0x1100)
    Format                      : DTS XLL
    Format/Info                 : Digital Theater Systems
    Commercial name             : DTS-HD Master Audio
    Codec ID                    : A_DTS
    Duration                    : 1 h 55 min
    Bit rate mode               : Variable
    Bit rate                    : 3 384 kb/s
    Channel(s)                  : 6 channels
    Channel layout              : C L R Ls Rs LFE
    Sampling rate               : 48.0 kHz
    Frame rate                  : 93.750 FPS (512 SPF)
    Bit depth                   : 24 bits
    Compression mode            : Lossless
    Stream size                 : 2.73 GiB (8%)
    Title                       : Ingles [CinemaniaHDD]
    Language                    : English
    Default                     : No
    Forced                      : No
    Original source medium      : Blu-ray

    Audio #6
    ID                          : 7
    Format                      : MLP FBA
    Format/Info                 : Meridian Lossless Packing FBA
    Commercial name             : Dolby TrueHD
    Codec ID                    : A_TRUEHD
    Duration                    : 1 h 55 min
    Bit rate mode               : Variable
    Bit rate                    : 1 360 kb/s
    Maximum bit rate            : 2 475 kb/s
    Channel(s)                  : 6 channels
    Channel layout              : L R C LFE Ls Rs
    Sampling rate               : 48.0 kHz
    Frame rate                  : 1 200.000 FPS (40 SPF)
    Compression mode            : Lossless
    Delay relative to video     : 17 s 525 ms
    Stream size                 : 1.10 GiB (3%)
    Title                       : Español Latino ORG THD Sony [CinemaniaHDD]
    Language                    : Spanish
    Default                     : No
    Forced                      : No

    Text #1
    ID                          : 8
    Format                      : PGS
    Muxing mode                 : zlib
    Codec ID                    : S_HDMV/PGS
    Codec ID/Info               : Picture based subtitle format used on BDs/HD-DVDs
    Duration                    : 1 h 50 min
    Bit rate                    : 24.1 kb/s
    Count of elements           : 2060
    Stream size                 : 19.0 MiB (0%)
    Title                       : Español-PGS [CinemaniaHDD]
    Language                    : Spanish
    Default                     : No
    Forced                      : No

    Text #2
    ID                          : 9
    ID in the original source m : 4608 (0x1200)
    Format                      : PGS
    Muxing mode                 : zlib
    Codec ID                    : S_HDMV/PGS
    Codec ID/Info               : Picture based subtitle format used on BDs/HD-DVDs
    Duration                    : 1 h 49 min
    Bit rate                    : 28.9 kb/s
    Count of elements           : 2189
    Stream size                 : 22.6 MiB (0%)
    Title                       : Ingles-PGS [CinemaniaHDD]
    Language                    : English
    Default                     : No
    Forced                      : No
    Original source medium      : Blu-ray

    Text #3
    ID                          : 10
    Format                      : UTF-8
    Codec ID                    : S_TEXT/UTF8
    Codec ID/Info               : UTF-8 Plain Text
    Duration                    : 1 h 50 min
    Bit rate                    : 0 b/s
    Count of elements           : 17
    Stream size                 : 720 Bytes (0%)
    Title                       : Forzados-SRT [CinemaniaHDD]
    Language                    : Spanish
    Default                     : Yes
    Forced                      : Yes

    Text #4
    ID                          : 11
    Format                      : UTF-8
    Codec ID                    : S_TEXT/UTF8
    Codec ID/Info               : UTF-8 Plain Text
    Duration                    : 1 h 50 min
    Bit rate                    : 41 b/s
    Count of elements           : 1023
    Stream size                 : 33.2 KiB (0%)
    Title                       : Español-SRT [CinemaniaHDD]
    Language                    : Spanish
    Default                     : No
    Forced                      : No

    Menu
    00:00:00.000                : Chapter 01
    00:04:56.462                : Chapter 02
    00:11:11.379                : Chapter 03
    00:14:38.210                : Chapter 04
    00:21:22.739                : Chapter 05
    00:25:46.753                : Chapter 06
    00:31:19.085                : Chapter 07
    00:36:15.298                : Chapter 08
    00:44:16.570                : Chapter 09
    00:50:18.056                : Chapter 10
    00:55:10.515                : Chapter 11
    01:01:56.045                : Chapter 12
    01:06:41.497                : Chapter 13
    01:15:33.362                : Chapter 14
    01:22:20.310                : Chapter 15
    01:29:02.003                : Chapter 16
    01:32:13.236                : Chapter 17
    01:38:31.864                : Chapter 18
    01:43:31.830                : Chapter 19
    01:51:58.586                : Chapter 20

  • Peso: 35.1 GiB

Sinopsis

Descargar La otra Reina (2008) REMUX 1080p Latino. Inglaterra, siglo XVI. Narra la historia de dos hermanas, Ana y María Bolena (Portman & Johansson). El padre y el tío de ambas, movidos por la ambición de mejorar el nivel social y el poder de la familia, convencen a las jóvenes para que conquisten el amor de Enrique VIII, Rey de Inglaterra. Ana y María abandonan su vida en el campo para trasladarse al peligroso y apasionante mundo de la corte. Pero, pronto surge entre ellas una rivalidad sin cuartel para obtener el amor del Rey. Al principio, el Rey escoge como amante a María y tiene con ella un bastardo. Pero Ana, que es muy inteligente y astuta, consigue eclipsar a su hermana e, incluso, que el rey repudie a Catalina de Aragón, su legítima esposa.

Audio Español Latino TrueHD + FLAC + AC3 5.1 Doblaje Original – EAC3 + AC3 2.0 ReDub – Ingles DTS-HD 5.1 Bluray
Disponible Solo Para VIP!!! 😀

Ficha técnica

Video trailer de la película

Enlaces de descarga

Rip de Bluray

Descargar La otra Reina (2008) REMUX 1080p Latino


Aportes de DPeliculasHDmega la pass es:dpeliculashdmega.org Aportes de CinemaniaHD la pass es:cinemaniahdd.com
Guardado en : Drama , Remux , Romance

Películas relacionadas

descargar La otra Reina (2008) REMUX 1080p Latino Full 1080p 1080p gratis, La otra Reina (2008) REMUX 1080p Latino Full 1080p mega 1 link, La otra Reina (2008) REMUX 1080p Latino Full 1080p pelicula completa, descargar La otra Reina (2008) REMUX 1080p Latino Full 1080p gratis en mega.

La otra Reina (2008) REMUX 1080p Latino pelicula full hd, La otra Reina (2008) REMUX 1080p Latino mega latino, La otra Reina (2008) REMUX 1080p Latino 4k latino, La otra Reina (2008) REMUX 1080p Latino pelicula completa, La otra Reina (2008) REMUX 1080p Latino descargar gratis, descargar La otra Reina (2008) REMUX 1080p Latino pelicula latino, La otra Reina (2008) REMUX 1080p Latino 1 link mega, La otra Reina (2008) REMUX 1080p Latino 1 link google drive, La otra Reina (2008) REMUX 1080p Latino hd 1080p latino.
Comentarios 0